(Classical) Peter Tchaikovsky / Пётр Чайковский — Симфония № 4 Op 36 • Симфоническая фантазия «Фатум» Op 77 • Итальянское каприччио Op 45 (The USSR Symphony Orchestra, Evgeni Svetlanov / ГАСО СССР, Евгений Светланов) — 1991, APE (image+.cue) lossless


 

[Цитировать]

Симфония № 4 Op 36 • Симфоническая фантазия «Фатум» Op 77 • Итальянское каприччио Op 45- Жанр: Classical
Страна-производитель диска: СССР
Годы издания диска: 1991
Годы записи фонограммы: 1967, 1970, 1987
Издатель (лейбл): Грамзапись
Номер по каталогу: GCD 00196
Композитор: Пётр Чайковский
Аудио кодек: ape
Тип рипа: image+.cue
Битрейт аудио: lossless
Продолжительность: 01h09'54"
Источник: собственный рип
Наличие сканов в содержимом раздачи: да-Треклист:
Symphony № 4 f-moll Op 36 (запись 1967)
01. I. Andante sostenuto. Moderato con anima [00h18'37"]
02. II. Andantino in modo di canzona [00h08'14"]
03. III. Scherzo. Pizzicato ostinato. Allegro [00h05'00"]
04. IV. Finale. Allegro con fuoco [00h07'53"]
05. Symphonic Fantasy Fatum c-moll Op 77 [00h15'59"] (запись 1970)
06. Capriccio Italien A-Dur Op 45 [00h14'11"] (запись 1987)-The USSR Symphony Orchestra, cond. Evgeni Svetlanov / Государственный академический симфонический оркестр СССР, дир. Евгений Светланов-

EAC log

Exact Audio Copy V0.99 prebeta 5 from 4. May 2009
Отчёт EAC об извлечении, выполненном 24. сентября 2014, 15:27
Tchaikovsky / Symphony 4 & Fatum
Дисковод: PIONEER DVD-RW  DVR-111D   Adapter: 1  ID: 0
Режим чтения                 : Достоверность
Использование точного потока : Да
Отключение кэша аудио        : Да
Использование указателей C2  : Нет
Коррекция смещения при чтении                     : 48
Способность читать области Lead-in и Lead-out     : Нет
Заполнение пропущенных сэмплов тишиной            : Да
Удаление блоков с тишиной в начале и конце        : Нет
При вычислениях CRC использовались нулевые сэмплы : Да
Интерфейс                                         : Установленный внешний ASPI-интерфейс
Выходной формат          : Monkey's Audio (без потерь)
Выбранный битрейт        : Normal Lossless Compression
Качество                 : Высокий
Добавление ID3-тэга      : Нет
Утилита сжатия           : C:\Program Files\Monkey's Audio\MAC.exe
TOC извлечённого CD
     Трек |   Старт  | Длительность | Начальный сектор | Конечный сектор
    ---------------------------------------------------------------------
       1  |  0:00.00 |   18:36.43   |           0      |      83742
       2  | 18:36.43 |    8:14.12   |       83743      |     120804
       3  | 26:50.55 |    5:00.08   |      120805      |     143312
       4  | 31:50.63 |    7:52.50   |      143313      |     178762
       5  | 39:43.38 |   15:59.37   |      178763      |     250724
       6  | 55:43.00 |   14:11.25   |      250725      |     314574
Характеристики диапазона извлечения и сообщения об ошибках
Выбранный диапазон
     Имя файла D:\Музыка lossless\Tchaikovsky Symphonies Svetlanov\Tchaikovsky Symphony 4 & Fatum Svetlanov\Tchaikovsky - Symphony 4 & Fatum.wav
     Пиковый уровень 100.0 %
     Качество диапазона 100.0 %
     CRC теста 2C5EE747
     CRC копии 2C5EE747
     Копирование... OK
Ошибок не произошло
AccurateRip: сводка
Трек  1  точное извлечение (доверие 2)  [63710FB3]
Трек  2  точное извлечение (доверие 2)  [CDD4576A]
Трек  3  точное извлечение (доверие 3)  [07503019]
Трек  4  точное извлечение (доверие 2)  [AC293B8C]
Трек  5  точное извлечение (доверие 2)  [869ED62D]
Трек  6  точное извлечение (доверие 2)  [75CE06CE]
Все треки извлечены точно
Конец отчёта

-

CUE

REM GENRE Classical
REM DATE 1991
REM DISCID 45106206
REM COMMENT "ExactAudioCopy v0.99pb5"
PERFORMER "Tchaikovsky"
TITLE "Symphony 4 & Fatum"
FILE "Tchaikovsky - Symphony 4 & Fatum.ape" WAVE
  TRACK 01 AUDIO
    TITLE "Symphony № 4 f-moll Op 36 – I. Andante sostenuto. Moderato con anima "
    PERFORMER "Tchaikovsky"
    INDEX 01 00:00:00
  TRACK 02 AUDIO
    TITLE "Symphony № 4 f-moll Op 36 – II. Andantino in modo di canzona"
    PERFORMER "Tchaikovsky"
    INDEX 00 18:36:05
    INDEX 01 18:36:43
  TRACK 03 AUDIO
    TITLE "Symphony № 4 f-moll Op 36 – III. Scherzo. Pizzicato ostinato. Allegro"
    PERFORMER "Tchaikovsky"
    INDEX 00 26:50:53
    INDEX 01 26:50:55
  TRACK 04 AUDIO
    TITLE "Symphony № 4 f-moll Op 36 – IV. Finale. Allegro con fuoco"
    PERFORMER "Tchaikovsky"
    INDEX 00 31:50:60
    INDEX 01 31:50:63
  TRACK 05 AUDIO
    TITLE "Symphonic Fantasy Fatum c-moll Op 77"
    PERFORMER "Tchaikovsky"
    INDEX 00 39:41:38
    INDEX 01 39:43:38
  TRACK 06 AUDIO
    TITLE "Capriccio Italien A-Dur Op 45"
    PERFORMER "Tchaikovsky"
    INDEX 00 55:40:63
    INDEX 01 55:43:00
-



Показать сообщения:    

Текущее время: 08-Дек 07:05

Часовой пояс: UTC + 3


Вы не можете начинать темы
Вы не можете отвечать на сообщения
Вы не можете редактировать свои сообщения
Вы не можете удалять свои сообщения
Вы не можете голосовать в опросах
Вы не можете прикреплять файлы к сообщениям
Вы не можете скачивать файлы