(Orchestral) Marc-Andre Dalbavie - Janacek Variations, Sinfonietta, Rocks under the Water - 2009, FLAC (tracks+.cue) lossless


 

[Цитировать]

Marc-Andre Dalbavie - Janacek Variations, Sinfonietta, Rocks under the Water
Жанр: Orchestral
Страна-производитель диска: France
Год издания диска: 2009
Издатель (лейбл): Ameson
Дата записи: 2006
Аудиокодек: FLAC
Тип рипа: tracks+.cue
Битрейт аудио: lossless
Продолжительность: 1:04:32
Источник: Стянул с файлообменника
сайт-источник/ник/другое: Релизера опознать не удалось, но большое ему спасибо за Дальбави
Наличие сканов в содержимом раздачи: да
Треклист:
01. Var Orch Sur Une Oevre De Janacek (2006) 22:04
Sinfonietta (2004)
02. I. Allegro 11:28
03. II. Scherzo 2:47
04. III. Largo 9:52
05. IV. Final 6:48
06. Rocks Under The Water (2002) 11:34
Исполнители:
Monte Carlo Philarmonic Orchestra, Direction - Marc-Andre Dalbavie

Лог создания рипа

Exact Audio Copy V1.0 beta 3 from 29. August 2011
EAC extraction logfile from 12. August 2014, 22:34
Various Artists / Dalbavie: Var Orch Sur Une De Janacek/Sinfonietta/Rocks Under The Water; Dalbavie/Monte-Carlo PO
Used drive : TSSTcorpCDDVDW SH-216AB Adapter: 1 ID: 0
Read mode : SecureUtilize accurate stream : YesDefeat audio cache : YesMake use of C2 pointers : No
Read offset correction : 6Overread into Lead-In and Lead-Out : NoFill up missing offset samples with silence : YesDelete leading and trailing silent blocks : NoNull samples used in CRC calculations : YesUsed interface : Native Win32 interface for Win NT & 2000Gap handling : Appended to previous track
Used output format : User Defined EncoderSelected bitrate : 768 kBit/sQuality : HighAdd ID3 tag : NoCommand line compressor : C:\Program Files (x86)\Exact Audio Copy\FLAC\FLAC.EXEAdditional command line options : -6 -V -T "ARTIST=%artist%" -T "TITLE=%title%" -T "ALBUM=%albumtitle%" -T "DATE=%year%" -T "TRACKNUMBER=%tracknr%" -T "GENRE=%genre%" -T "COMMENT=%comment%" -T "BAND=%albuminterpret%" -T "ALBUMARTIST=%albuminterpret%" -T "COMPOSER=%composer%" %haslyrics%--tag-from-file=LYRICS="%lyricsfile%"%haslyrics% -T "DISCNUMBER=%cdnumber%" -T "TOTALDISCS=%totalcds%" -T "TOTALTRACKS=%numtracks%" %hascover%--picture="%coverfile%"%hascover% %source% -o %dest%
TOC of the extracted CD
Track | Start | Length | Start sector | End sector --------------------------------------------------------- 1 | 0:00.00 | 22:03.63 | 0 | 99287 2 | 22:03.63 | 11:27.51 | 99288 | 150863 3 | 33:31.39 | 2:47.04 | 150864 | 163392 4 | 36:18.43 | 9:52.36 | 163393 | 207828 5 | 46:11.04 | 6:47.62 | 207829 | 238415 6 | 52:58.66 | 11:33.57 | 238416 | 290447
Track 1
Filename C:\Users\astarte\03. POST\dalbavie\01 Var Orch Sur Une Oevre De Janacek.wav
Pre-gap length 0:00:02.00
Peak level 100.0 % Extraction speed 5.8 X Track quality 100.0 % Copy CRC 42F5500C Accurately ripped (confidence 2) [75D5ECF9] (AR v2) Copy OK
Track 2
Filename C:\Users\astarte\03. POST\dalbavie\02 001 Allegro.wav
Peak level 100.0 % Extraction speed 7.3 X Track quality 100.0 % Copy CRC 7127BBAA Accurately ripped (confidence 2) [24BF1D1A] (AR v2) Copy OK
Track 3
Filename C:\Users\astarte\03. POST\dalbavie\03 002 Scherzo.wav
Peak level 100.0 % Extraction speed 6.7 X Track quality 100.0 % Copy CRC 8E2522AD Accurately ripped (confidence 2) [54F102BC] (AR v2) Copy OK
Track 4
Filename C:\Users\astarte\03. POST\dalbavie\04 003 Largo.wav
Peak level 98.8 % Extraction speed 8.2 X Track quality 100.0 % Copy CRC 14167123 Accurately ripped (confidence 2) [BD53E2DC] (AR v2) Copy OK
Track 5
Filename C:\Users\astarte\03. POST\dalbavie\05 004 Final.wav
Peak level 100.0 % Extraction speed 8.5 X Track quality 100.0 % Copy CRC DB40D43E Accurately ripped (confidence 2) [BE758D53] (AR v2) Copy OK
Track 6
Filename C:\Users\astarte\03. POST\dalbavie\06 Rocks Under The Water.wav
Peak level 100.0 % Extraction speed 9.4 X Track quality 100.0 % Copy CRC 9CD866C6 Accurately ripped (confidence 2) [7172B69D] (AR v2) Copy OK
All tracks accurately ripped
No errors occurred
End of status report
==== Log checksum FB90503CFB02BCB74BADA0DBC752D9BF6526AAC397FAF2E766FB1DC25B1DF0B5 ====
------------------------------------------------------------
Exact Audio Copy V1.0 beta 3 from 29. August 2011
EAC extraction logfile from 12. August 2014, 22:34
Various Artists / Dalbavie: Var Orch Sur Une De Janacek/Sinfonietta/Rocks Under The Water; Dalbavie/Monte-Carlo PO
Used drive : TSSTcorpCDDVDW SH-216AB Adapter: 1 ID: 0
Read mode : SecureUtilize accurate stream : YesDefeat audio cache : YesMake use of C2 pointers : No
Read offset correction : 6Overread into Lead-In and Lead-Out : NoFill up missing offset samples with silence : YesDelete leading and trailing silent blocks : NoNull samples used in CRC calculations : YesUsed interface : Native Win32 interface for Win NT & 2000Gap handling : Appended to previous track
Used output format : User Defined EncoderSelected bitrate : 768 kBit/sQuality : HighAdd ID3 tag : NoCommand line compressor : C:\Program Files (x86)\Exact Audio Copy\FLAC\FLAC.EXEAdditional command line options : -6 -V -T "ARTIST=%artist%" -T "TITLE=%title%" -T "ALBUM=%albumtitle%" -T "DATE=%year%" -T "TRACKNUMBER=%tracknr%" -T "GENRE=%genre%" -T "COMMENT=%comment%" -T "BAND=%albuminterpret%" -T "ALBUMARTIST=%albuminterpret%" -T "COMPOSER=%composer%" %haslyrics%--tag-from-file=LYRICS="%lyricsfile%"%haslyrics% -T "DISCNUMBER=%cdnumber%" -T "TOTALDISCS=%totalcds%" -T "TOTALTRACKS=%numtracks%" %hascover%--picture="%coverfile%"%hascover% %source% -o %dest%
TOC of the extracted CD
Track | Start | Length | Start sector | End sector --------------------------------------------------------- 1 | 0:00.00 | 22:03.63 | 0 | 99287 2 | 22:03.63 | 11:27.51 | 99288 | 150863 3 | 33:31.39 | 2:47.04 | 150864 | 163392 4 | 36:18.43 | 9:52.36 | 163393 | 207828 5 | 46:11.04 | 6:47.62 | 207829 | 238415 6 | 52:58.66 | 11:33.57 | 238416 | 290447
Track 1
Filename C:\Users\astarte\03. POST\dalbavie\01 Var Orch Sur Une Oevre De Janacek.wav
Pre-gap length 0:00:02.00
Peak level 100.0 % Extraction speed 5.8 X Track quality 100.0 % Copy CRC 42F5500C Accurately ripped (confidence 2) [75D5ECF9] (AR v2) Copy OK
Track 2
Filename C:\Users\astarte\03. POST\dalbavie\02 001 Allegro.wav
Peak level 100.0 % Extraction speed 7.3 X Track quality 100.0 % Copy CRC 7127BBAA Accurately ripped (confidence 2) [24BF1D1A] (AR v2) Copy OK
Track 3
Filename C:\Users\astarte\03. POST\dalbavie\03 002 Scherzo.wav
Peak level 100.0 % Extraction speed 6.7 X Track quality 100.0 % Copy CRC 8E2522AD Accurately ripped (confidence 2) [54F102BC] (AR v2) Copy OK
Track 4
Filename C:\Users\astarte\03. POST\dalbavie\04 003 Largo.wav
Peak level 98.8 % Extraction speed 8.2 X Track quality 100.0 % Copy CRC 14167123 Accurately ripped (confidence 2) [BD53E2DC] (AR v2) Copy OK
Track 5
Filename C:\Users\astarte\03. POST\dalbavie\05 004 Final.wav
Peak level 100.0 % Extraction speed 8.5 X Track quality 100.0 % Copy CRC DB40D43E Accurately ripped (confidence 2) [BE758D53] (AR v2) Copy OK
Track 6
Filename C:\Users\astarte\03. POST\dalbavie\06 Rocks Under The Water.wav
Peak level 100.0 % Extraction speed 9.4 X Track quality 100.0 % Copy CRC 9CD866C6 Accurately ripped (confidence 2) [7172B69D] (AR v2) Copy OK
All tracks accurately ripped
No errors occurred
End of status report
==== Log checksum FB90503CFB02BCB74BADA0DBC752D9BF6526AAC397FAF2E766FB1DC25B1DF0B5 ====

Содержание индексной карты (.CUE)

REM GENRE ClassicalREM DATE 2009REM DISCID 3D0F2006REM COMMENT ExactAudioCopy v1.0b3PERFORMER "Various Artists"TITLE "Dalbavie: Var Orch Sur Une De Janacek/Sinfonietta/Rocks Under The Water; Dalb..."FILE "01 Var Orch Sur Une Oevre De Janacek.wav" WAVE TRACK 01 AUDIO TITLE "Var Orch Sur Une Oevre De Janacek" PERFORMER "Marc-Andre Dalbavie" ISRC FRP910900001 FLAGS DCP INDEX 01 00:00:00FILE "02 001 Allegro.wav" WAVE TRACK 02 AUDIO TITLE "001 Allegro" PERFORMER "Marc-Andre Dalbavie" ISRC FRP910900002 FLAGS DCP INDEX 01 00:00:00FILE "03 002 Scherzo.wav" WAVE TRACK 03 AUDIO TITLE "002 Scherzo" PERFORMER "Marc-Andre Dalbavie" ISRC FRP910900003 FLAGS DCP INDEX 01 00:00:00FILE "04 003 Largo.wav" WAVE TRACK 04 AUDIO TITLE "003 Largo" PERFORMER "Marc-Andre Dalbavie" ISRC FRP910900004 FLAGS DCP INDEX 01 00:00:00FILE "05 004 Final.wav" WAVE TRACK 05 AUDIO TITLE "004 Final" PERFORMER "Marc-Andre Dalbavie" ISRC FRP910900005 FLAGS DCP INDEX 01 00:00:00FILE "06 Rocks Under The Water.wav" WAVE TRACK 06 AUDIO TITLE "Rocks Under The Water" PERFORMER "Marc-Andre Dalbavie" ISRC FRP910900006 FLAGS DCP INDEX 01 00:00:00



Показать сообщения:    

Текущее время: 08-Дек 08:55

Часовой пояс: UTC + 3


Вы не можете начинать темы
Вы не можете отвечать на сообщения
Вы не можете редактировать свои сообщения
Вы не можете удалять свои сообщения
Вы не можете голосовать в опросах
Вы не можете прикреплять файлы к сообщениям
Вы не можете скачивать файлы