(Classical) Чайковский/Tchaikovsky - 1812 Ouverture * Бетховен/Beethoven - Wellington\'s Victory * Лист/Liszt - Battle of the Huns (Cincinnati Symphony Orchestra, Kunzel) - 2004, APE (image+.cue) lossless


 

[Цитировать]

Tchaikovsky - 1812 Ouverture * Beethoven - Wellington's Victory
Жанр: Classical
Страна-производитель диска: Austria
Год издания диска: 2004
Издатель (лейбл): Telarc Classics
Номер по каталогу: CD-80640
Дата записи: 2004
Аудиокодек: APE
Тип рипа: image+.cue
Битрейт аудио: lossless
Продолжительность: 71'07
Источник: собственный рип
Наличие сканов в содержимом раздачи: да
Треклист:
Pyotr Tchaikovsky
1. 1812 Overture, Op.49
2. Capriccio Italien, Op.45
3. Cossack Dance from Mazeppa
Ludwig van Beethoven
4. Wellington's Victory, Op.91
Franz Liszt
5. Battle of the Huns
6. Hungarian March to the Assault
Cincinnati Symphony Orchestra
Erich Kunzel

Лог создания рипа

Exact Audio Copy V1.0 beta 3 from 29. August 2011
EAC extraction logfile from 4. August 2014, 23:08
Tchaikovsky-Beethoven-Liszt / 1812 Ouverture-Wellington's Victory-Battle of the Huns
Used drive : TSSTcorpCDDVDW SE-208AB Adapter: 1 ID: 0
Read mode : SecureUtilize accurate stream : YesDefeat audio cache : YesMake use of C2 pointers : No
Read offset correction : 6Overread into Lead-In and Lead-Out : NoFill up missing offset samples with silence : YesDelete leading and trailing silent blocks : NoNull samples used in CRC calculations : YesUsed interface : Native Win32 interface for Win NT & 2000
Used output format : Monkey's Audio Lossless EncoderSelected bitrate : High Lossless CompressionQuality : HighAdd ID3 tag : NoCommand line compressor : C:\Program Files (x86)\Exact Audio Copy\MAC\MAC.exe
TOC of the extracted CD
Track | Start | Length | Start sector | End sector --------------------------------------------------------- 1 | 0:00.00 | 15:43.00 | 0 | 70724 2 | 15:43.00 | 15:19.25 | 70725 | 139674 3 | 31:02.25 | 4:23.47 | 139675 | 159446 4 | 35:25.72 | 15:16.30 | 159447 | 228176 5 | 50:42.27 | 15:39.13 | 228177 | 298614 6 | 66:21.40 | 4:46.02 | 298615 | 320066
Range status and errors
Selected range
Filename D:\EAC\Tchaikovsky-Beethoven-Liszt - 1812 Ouverture-Wellington's Victory-Battle of the Huns.wav
Peak level 99.9 % Extraction speed 2.1 X Range quality 99.9 % Test CRC C4A59B9C Copy CRC C4A59B9C Copy OK
No errors occurred
AccurateRip summary
Track 1 accurately ripped (confidence 8) [2E136FEA] (AR v2)Track 2 accurately ripped (confidence 8) [B4E35CED] (AR v2)Track 3 accurately ripped (confidence 8) [1CB2DBD5] (AR v2)Track 4 accurately ripped (confidence 8) [E995D607] (AR v2)Track 5 accurately ripped (confidence 8) [4DB6DED4] (AR v2)Track 6 accurately ripped (confidence 8) [EC76A51D] (AR v2)
All tracks accurately ripped
End of status report
---- CUETools DB Plugin V2.1.3
[CTDB TOCID: qsYFtezqDPpUz_jFGDWbfFITLPE-] found, Submit result: qsYFtezqDPpUz_jFGDWbfFITLPE- has been confirmed[21ddb66b] (11/11) Accurately ripped
==== Log checksum A2BEA9CB2CDA9D58C81894B7985ED44AEE20EE4C4910FFC58D2CDDA94AB5CB2C ====

Содержание индексной карты (.CUE)

REM GENRE "Chamber Music"REM DATE 2004REM DISCID 5510AB06REM COMMENT "ExactAudioCopy v1.0b3"PERFORMER "Tchaikovsky-Beethoven-Liszt"TITLE "1812 Ouverture-Wellington's Victory-Battle of the Huns"FILE "Tchaikovsky-Beethoven-Liszt - 1812 Ouverture-Wellington's Victory-Battle of the Huns.ape" WAVE TRACK 01 AUDIO TITLE "Tchaikovsky.1812 Overture, Op.49" PERFORMER "Tchaikovsky-Beethoven-Liszt" ISRC USTE10301041 INDEX 01 00:00:00 TRACK 02 AUDIO TITLE "Tchaikovsky.Capriccio Italien, Op.45" PERFORMER "Tchaikovsky-Beethoven-Liszt" ISRC USTE10302041 INDEX 00 15:37:35 INDEX 01 15:43:00 TRACK 03 AUDIO TITLE "Tchaikovsky.Cossack Dance from Mazeppa" PERFORMER "Tchaikovsky-Beethoven-Liszt" ISRC USTE10303041 INDEX 00 30:56:30 INDEX 01 31:02:25 TRACK 04 AUDIO TITLE "Beethoven.Wellington's Victory, Op.91" PERFORMER "Tchaikovsky-Beethoven-Liszt" ISRC USTE10404640 INDEX 00 35:19:50 INDEX 01 35:25:72 TRACK 05 AUDIO TITLE "Liszt.Battle of the Huns" PERFORMER "Tchaikovsky-Beethoven-Liszt" ISRC USTE10405640 INDEX 00 50:37:57 INDEX 01 50:42:27 TRACK 06 AUDIO TITLE "Liszt.Hungarian March to the Assault" PERFORMER "Tchaikovsky-Beethoven-Liszt" ISRC USTE10406640 INDEX 00 66:12:37 INDEX 01 66:21:40



Показать сообщения:    

Текущее время: 03-Дек 03:23

Часовой пояс: UTC + 3


Вы не можете начинать темы
Вы не можете отвечать на сообщения
Вы не можете редактировать свои сообщения
Вы не можете удалять свои сообщения
Вы не можете голосовать в опросах
Вы не можете прикреплять файлы к сообщениям
Вы не можете скачивать файлы