(Classical) Haydn - Symphonies № 94 "Surprise", № 95 & 97 (English Chamber Orchestra / Jeffrey Tate) 1991 - 2006, WavPack (iso.wv) lossless


 

[Цитировать]

Haydn - Symphonies № 94 "Surprise",№ 95 & 97
(English Chamber Orchestra / Jeffrey Tate) 1991
Franz Joseph Haydn (1732—1809) Жанр: Classical
Страна-производитель диска: E.U.
Год издания диска: 2006
Издатель (лейбл): EMI Classics
Номер по каталогу: 3 55678 2
Дата записи: 14-16.02.1991
Аудиокодек: WavPack
Тип рипа: iso.wv
Битрейт аудио: lossless
Продолжительность: 01:10:54
Источник: NetLab, shatterhand
Наличие сканов в содержимом раздачи: да
Треклист:
Symphony № 94 in G, "Surprise"
01. I. Adagio cantabile - vivace assai (8:48)
02. II. Andante (6:58)
03. III. Menuetto: Allegro molto (4:24)
04. IV. Allegro di molto (4:15)
Symphony № 95 in C minor
05. I. Allegro moderato (6:29)
06. II. Andante (5:27)
07. III. Menuetto (5:08)
08. IV. Finale: Vivace (3:58)
Symphony № 97 in C
09. I. Adagio - vivace (8:13)
10. II. Adagio ma non troppo (7:47)
11. III. Menuetto: Allegretto (4:04)
12. IV. Finale: Presto assai (5:23)
Исполнители:
English Chamber Orchestra / Jeffrey Tate

Перечень файлов (содержимое) контейнера в текстовом виде.

1. Содержимое CUE-файла.
2. Отчёт ЕАС.
3. Аудиофайл (.wv)
4. Сканы: буклет, диск, (полные) JPG;
5. тех. данные
6. Сканы front, CD, Back формат jpeg

Лог создания рипа

Exact Audio Copy V1.0 beta 3 from 29. August 2011
EAC extraction logfile from 29. January 2014, 9:39
English Chamber Orchestra, cond. Jeffrey Tate / Haydn, Symphonies 94, 95 & 97
Used drive : TSSTcorpCDDVDW SH-S223F Adapter: 0 ID: 1
Read mode : SecureUtilize accurate stream : YesDefeat audio cache : YesMake use of C2 pointers : No
Read offset correction : 6Overread into Lead-In and Lead-Out : NoFill up missing offset samples with silence : YesDelete leading and trailing silent blocks : NoNull samples used in CRC calculations : YesUsed interface : Native Win32 interface for Win NT & 2000
Used output format : User Defined EncoderSelected bitrate : 1024 kBit/sQuality : HighAdd ID3 tag : NoCommand line compressor : C:\Program Files\Exact Audio Copy\wavpack.exeAdditional command line options : -hm %source% %dest%
TOC of the extracted CD
Track | Start | Length | Start sector | End sector --------------------------------------------------------- 1 | 0:00.33 | 8:47.67 | 33 | 39624 2 | 8:48.25 | 6:57.40 | 39625 | 70939 3 | 15:45.65 | 4:24.05 | 70940 | 90744 4 | 20:09.70 | 4:15.25 | 90745 | 109894 5 | 24:25.20 | 6:28.53 | 109895 | 139047 6 | 30:53.73 | 5:27.05 | 139048 | 163577 7 | 36:21.03 | 5:08.07 | 163578 | 186684 8 | 41:29.10 | 3:58.03 | 186685 | 204537 9 | 45:27.13 | 8:13.12 | 204538 | 241524 10 | 53:40.25 | 7:47.23 | 241525 | 276572 11 | 61:27.48 | 4:04.07 | 276573 | 294879 12 | 65:31.55 | 5:23.13 | 294880 | 319117
Range status and errors
Selected range
Filename F:\iso\English Chamber Orchestra, cond. Jeffrey Tate - Haydn, Symphonies 94, 95 & 97\English Chamber Orchestra, cond. Jeffrey Tate - Haydn, Symphonies 94, 95 & 97.wav
Peak level 91.6 % Extraction speed 1.7 X Range quality 99.9 % Test CRC DD354867 Copy CRC DD354867 Copy OK
No errors occurred
AccurateRip summary
Track 1 accurately ripped (confidence 2) [9EC2ECF6] (AR v1)Track 2 accurately ripped (confidence 2) [BC9D0889] (AR v1)Track 3 accurately ripped (confidence 2) [B36EAFCA] (AR v1)Track 4 accurately ripped (confidence 2) [54E5026F] (AR v1)Track 5 accurately ripped (confidence 2) [BC24C74C] (AR v1)Track 6 accurately ripped (confidence 2) [BA44FE97] (AR v1)Track 7 accurately ripped (confidence 2) [07A03221] (AR v1)Track 8 accurately ripped (confidence 2) [1B6C45D7] (AR v1)Track 9 accurately ripped (confidence 2) [CE7CF604] (AR v1)Track 10 accurately ripped (confidence 2) [FD8C65B2] (AR v1)Track 11 accurately ripped (confidence 2) [24F358B0] (AR v1)Track 12 accurately ripped (confidence 2) [2C40D192] (AR v1)
All tracks accurately ripped
End of status report
==== Log checksum EA2B945CF54B93195169A844B874563AF24A54A8F3928DB104B5D3B071A8407F ====

Содержание индексной карты (.CUE)

REM GENRE "Symphony"REM DATE 1992REM DISCID AF109E0CREM COMMENT "ExactAudioCopy v1.0b3"CATALOG 0094635567823PERFORMER "English Chamber Orchestra, cond. Jeffrey Tate"TITLE "Haydn, Symphonies 94, 95 & 97"FILE "English Chamber Orchestra, cond. Jeffrey Tate - 1992 - Haydn, Symphonies 94, 95 & 97 (EMI Classics 0946 3 55678 2 3) [NL+].wv" WAVE TRACK 01 AUDIO TITLE "Symphony No 94 in G, 'Surprise', I. Adagio cantabile - vivace assai" PERFORMER "English Chamber Orchestra, cond. Jeffrey Tate" INDEX 00 00:00:00 INDEX 01 00:00:33 TRACK 02 AUDIO TITLE "Symphony No 94 in G, 'Surprise', II. Andante" PERFORMER "English Chamber Orchestra, cond. Jeffrey Tate" INDEX 00 08:43:60 INDEX 01 08:48:25 TRACK 03 AUDIO TITLE "Symphony No 94 in G, 'Surprise', III. Menuetto: Allegro molto" PERFORMER "English Chamber Orchestra, cond. Jeffrey Tate" INDEX 00 15:42:43 INDEX 01 15:45:65 TRACK 04 AUDIO TITLE "Symphony No 94 in G, 'Surprise', IV. Allegro di molto" PERFORMER "English Chamber Orchestra, cond. Jeffrey Tate" INDEX 00 20:07:43 INDEX 01 20:09:70 TRACK 05 AUDIO TITLE "Symphony No 95 in C minor, I. Allegro moderato" PERFORMER "English Chamber Orchestra, cond. Jeffrey Tate" INDEX 00 24:15:73 INDEX 01 24:25:20 TRACK 06 AUDIO TITLE "Symphony No 95 in C minor, II. Andante" PERFORMER "English Chamber Orchestra, cond. Jeffrey Tate" INDEX 00 30:50:08 INDEX 01 30:53:73 TRACK 07 AUDIO TITLE "Symphony No 95 in C minor, III. Menuetto" PERFORMER "English Chamber Orchestra, cond. Jeffrey Tate" INDEX 00 36:19:50 INDEX 01 36:21:03 TRACK 08 AUDIO TITLE "Symphony No 95 in C minor, IV. Finale: Vivace" PERFORMER "English Chamber Orchestra, cond. Jeffrey Tate" INDEX 00 41:27:58 INDEX 01 41:29:10 TRACK 09 AUDIO TITLE "Symphony No 97 in C, I. Adagio - vivace" PERFORMER "English Chamber Orchestra, cond. Jeffrey Tate" INDEX 00 45:19:18 INDEX 01 45:27:13 TRACK 10 AUDIO TITLE "Symphony No 97 in C, II. Adagio ma non troppo" PERFORMER "English Chamber Orchestra, cond. Jeffrey Tate" INDEX 00 53:35:58 INDEX 01 53:40:25 TRACK 11 AUDIO TITLE "Symphony No 97 in C, III. Menuetto: Allegretto" PERFORMER "English Chamber Orchestra, cond. Jeffrey Tate" INDEX 00 61:24:10 INDEX 01 61:27:48 TRACK 12 AUDIO TITLE "Symphony No 97 in C, IV. Finale: Presto assai" PERFORMER "English Chamber Orchestra, cond. Jeffrey Tate" INDEX 00 65:28:45 INDEX 01 65:31:55

Лог проверки качества

Скриншот спектра частот




Показать сообщения:    

Текущее время: 02-Дек 21:11

Часовой пояс: UTC + 3


Вы не можете начинать темы
Вы не можете отвечать на сообщения
Вы не можете редактировать свои сообщения
Вы не можете удалять свои сообщения
Вы не можете голосовать в опросах
Вы не можете прикреплять файлы к сообщениям
Вы не можете скачивать файлы