(Classical) Scriabin / Скрябин — Symphony № 1 Op 26 / Симфония № 1 Op 26 (Avdeyeva / Авдеева, Grigoriev / Григорьев, The Russian Choir / Русский Хор, Yurlov / Юрлов; USSR SO / ГСО СССР, Svetlanov / Светланов) — 1991, APE (image+.cue) lossless


 

[Цитировать]

Symphony № 1 Op 26 / Симфония № 1 Op 26-
Жанр: Classical
Страна-производитель диска: СССР
Год издания диска: 1991
Год записи фонограммы: 1963
Издатель (лейбл): Мелодия
Номер по каталогу: SUCD 10-00188
Композитор: Александр Скрябин
Аудио кодек: ape
Тип рипа: image+.cue
Битрейт аудио: lossless
Продолжительность: 00h48'53"
Источник: собственный рип
Наличие сканов в содержимом раздачи: да-Треклист:
Symphony No 1 E-Dur Op 26
01. I. Lento [00h07'56"]
02. II. Allegro dramatico [00h08'17"]
03. III. Lento [00h09'38"]
04. IV. Vivace [00h03'21"]
05. V. Allegro [00h06'59"]
06. VI. Andante [00h12'43"]-The Russian Choir / Республиканская русская хоровая капелла, cond. Alexander Yurlov / Александр Юрлов, Mezzo-soprano – Larissa Avdeyeva / Лариса Авдеева, Tenor – Anton Grigoriev / Антон Григорьев
The USSR Symphony Orchestra / Государственный симфонический оркестр СССР, cond. Evgeni Svetlanov / Евгений Светланов-

EAC log

Exact Audio Copy V0.99 prebeta 5 from 4. May 2009
Отчёт EAC об извлечении, выполненном 20. сентября 2014, 22:27
Scriabin / Symphony № 1
Дисковод: PIONEER DVD-RW  DVR-111D   Adapter: 1  ID: 1
Режим чтения                 : Достоверность
Использование точного потока : Да
Отключение кэша аудио        : Да
Использование указателей C2  : Нет
Коррекция смещения при чтении                     : 48
Способность читать области Lead-in и Lead-out     : Нет
Заполнение пропущенных сэмплов тишиной            : Да
Удаление блоков с тишиной в начале и конце        : Нет
При вычислениях CRC использовались нулевые сэмплы : Да
Интерфейс                                         : Установленный внешний ASPI-интерфейс
Выходной формат          : Monkey's Audio (без потерь)
Выбранный битрейт        : Normal Lossless Compression
Качество                 : Высокий
Добавление ID3-тэга      : Нет
Утилита сжатия           : C:\Program Files\Monkey's Audio\MAC.exe
TOC извлечённого CD
     Трек |   Старт  | Длительность | Начальный сектор | Конечный сектор
    ---------------------------------------------------------------------
       1  |  0:00.00 |    7:55.38   |           0      |      35662
       2  |  7:55.38 |    8:16.62   |       35663      |      72924
       3  | 16:12.25 |    9:38.00   |       72925      |     116274
       4  | 25:50.25 |    3:20.38   |      116275      |     131312
       5  | 29:10.63 |    6:59.37   |      131313      |     162774
       6  | 36:10.25 |   12:42.50   |      162775      |     219974
Характеристики диапазона извлечения и сообщения об ошибках
Выбранный диапазон
     Имя файла D:\Музыка lossless\Scriabin Symphony № 1 Svetlanov\Scriabin - Symphony № 1.wav
     Пиковый уровень 60.3 %
     Качество диапазона 100.0 %
     CRC теста F81B1593
     CRC копии F81B1593
     Копирование... OK
Ошибок не произошло
AccurateRip: сводка
Трек  1  точность не определена (достоверность 2)  [6CFD2AF7], AccurateRip вернул [455485EF]
Трек  2  точность не определена (достоверность 2)  [B153622F], AccurateRip вернул [5C700C36]
Трек  3  точность не определена (достоверность 2)  [5FB0BAE1], AccurateRip вернул [1AFEF31F]
Трек  4  точность не определена (достоверность 2)  [C594FCEE], AccurateRip вернул [E7FA0A69]
Трек  5  точность не определена (достоверность 2)  [7C9CF570], AccurateRip вернул [1714DDD9]
Трек  6  точность не определена (достоверность 2)  [A86A3D38], AccurateRip вернул [CB9B04B5]
Ни один трек не прошёл проверки на точность
В вашей базе может быть иной вариант штамповки диска
Конец отчёта

-

CUE

REM GENRE Classical
REM DATE 1991
REM DISCID 500B7506
REM COMMENT "ExactAudioCopy v0.99pb5"
PERFORMER "Scriabin"
TITLE "Symphony № 1"
FILE "Scriabin - Symphony № 1.ape" WAVE
  TRACK 01 AUDIO
    TITLE "Symphony No 1 E-Dur Op 26 – I. Lento"
    PERFORMER "Scriabin"
    INDEX 01 00:00:00
  TRACK 02 AUDIO
    TITLE "Symphony No 1 E-Dur Op 26 – II. Allegro dramatico"
    PERFORMER "Scriabin"
    INDEX 00 07:53:30
    INDEX 01 07:55:38
  TRACK 03 AUDIO
    TITLE "Symphony No 1 E-Dur Op 26 – III. Lento"
    PERFORMER "Scriabin"
    INDEX 00 16:09:25
    INDEX 01 16:12:25
  TRACK 04 AUDIO
    TITLE "Symphony No 1 E-Dur Op 26 – IV. Vivace"
    PERFORMER "Scriabin"
    INDEX 00 25:47:63
    INDEX 01 25:50:25
  TRACK 05 AUDIO
    TITLE "Symphony No 1 E-Dur Op 26 – V. Allegro"
    PERFORMER "Scriabin"
    INDEX 00 29:07:13
    INDEX 01 29:10:63
  TRACK 06 AUDIO
    TITLE "Symphony No 1 E-Dur Op 26 – VI. Andante"
    PERFORMER "Scriabin"
    INDEX 00 36:07:20
    INDEX 01 36:10:25
-



Показать сообщения:    

Текущее время: 03-Дек 16:44

Часовой пояс: UTC + 3


Вы не можете начинать темы
Вы не можете отвечать на сообщения
Вы не можете редактировать свои сообщения
Вы не можете удалять свои сообщения
Вы не можете голосовать в опросах
Вы не можете прикреплять файлы к сообщениям
Вы не можете скачивать файлы