(Classical) Ludwig van Beethoven — Symphonies № 1 & 2 (Op 21 & 36) (North German Philharmonic Orchestra, Eugen Duvier; London Philharmonic Orchestra, Cesare Cantieri) — 1994, APE (image+.cue) lossless


 

[Цитировать]

Symphonies № 1 & 2 (Op 21 & 36)- Жанр: Classical
Страна-производитель диска: Германия
Год издания диска: 1994
Издатель (лейбл): Point Classics
Номер по каталогу: 2670112
CATALOG: 027726701127
Композитор: Ludwig van Beethoven
Аудио кодек: ape
Тип рипа: image+.cue
Битрейт аудио: lossless
Продолжительность: 01h01'51"
Источник: собственный рип
Наличие сканов в содержимом раздачи: нет-Треклист:
Symphony № 1 C-Dur Op 21
01. I. Adagio molto, allegro con brio [00h09'08"]
02. II. Andante cantabile con moto [00h08'05"]
03. III. Minuetto: Allegro molto e vivace [00h03'35"]
04. IV. Finale: Adagio, allegro molto e vivace [00h05'52"]
North German Philharmonic Orchestra – cond. Eugen Duvier
Symphony № 2 D-Dur Op 36
05. I. Adagio molto – Allegro con brio [00h13'28"]
06. II. Larghetto [00h11'47"]
07. III. Scherzo [00h03'38"]
08. IV. Allegro molto [00h06'18"]
London Philharmonic Orchestra – cond. Cesare Cantieri-

EAC log

Exact Audio Copy V0.99 prebeta 5 from 4. May 2009
Отчёт EAC об извлечении, выполненном 20. сентября 2014, 23:25
Beethoven / Symphonies 1 & 2
Дисковод: MITSUMI CR-486ETE   Adapter: 1  ID: 0
Режим чтения                 : Достоверность
Использование точного потока : Да
Отключение кэша аудио        : Да
Использование указателей C2  : Нет
Коррекция смещения при чтении                     : 6
Способность читать области Lead-in и Lead-out     : Нет
Заполнение пропущенных сэмплов тишиной            : Да
Удаление блоков с тишиной в начале и конце        : Нет
При вычислениях CRC использовались нулевые сэмплы : Да
Интерфейс                                         : Установленный внешний ASPI-интерфейс
Выходной формат          : Monkey's Audio (без потерь)
Выбранный битрейт        : Normal Lossless Compression
Качество                 : Высокий
Добавление ID3-тэга      : Нет
Утилита сжатия           : C:\Program Files\Monkey's Audio\MAC.exe
TOC извлечённого CD
     Трек |   Старт  | Длительность | Начальный сектор | Конечный сектор
    ---------------------------------------------------------------------
       1  |  0:00.00 |    9:08.00   |           0      |      41099
       2  |  9:08.00 |    8:05.00   |       41100      |      77474
       3  | 17:13.00 |    3:34.50   |       77475      |      93574
       4  | 20:47.50 |    5:52.12   |       93575      |     119986
       5  | 26:39.62 |   13:28.00   |      119987      |     180586
       6  | 40:07.62 |   11:47.13   |      180587      |     233624
       7  | 51:55.00 |    3:38.07   |      233625      |     249981
       8  | 55:33.07 |    6:18.20   |      249982      |     278351
Характеристики диапазона извлечения и сообщения об ошибках
Выбранный диапазон
     Имя файла D:\Музыка lossless\Beethoven Symphonies 1 & 2 Point\Beethoven - Symphonies 1 & 2.wav
     Пиковый уровень 92.6 %
     Качество диапазона 100.0 %
     CRC теста 393E7A83
     CRC копии 393E7A83
     Копирование... OK
Ошибок не произошло
AccurateRip: сводка
Трек  1  точное извлечение (доверие 4)  [35A8374B]
Трек  2  точное извлечение (доверие 4)  [B57908BB]
Трек  3  точное извлечение (доверие 4)  [F052EB7A]
Трек  4  точное извлечение (доверие 4)  [133BDCC2]
Трек  5  точное извлечение (доверие 4)  [72A5DFA6]
Трек  6  точное извлечение (доверие 4)  [D993C3BF]
Трек  7  точное извлечение (доверие 4)  [BE557AE8]
Трек  8  точное извлечение (доверие 4)  [11F41BDC]
Все треки извлечены точно
Конец отчёта

-

CUE

REM GENRE Classical
REM DATE 1994
REM DISCID 560E7F08
REM COMMENT "ExactAudioCopy v0.99pb5"
PERFORMER "Beethoven"
TITLE "Symphonies 1 & 2"
FILE "Beethoven - Symphonies 1 & 2.ape" WAVE
  TRACK 01 AUDIO
    TITLE "Symphony № 1 C-Dur Op 21 – I. Adagio molto, allegro con brio"
    PERFORMER "Beethoven"
    INDEX 01 00:00:00
  TRACK 02 AUDIO
    TITLE "Symphony № 1 C-Dur Op 21 – II. Andante cantabile con moto"
    PERFORMER "Beethoven"
    INDEX 00 09:05:53
    INDEX 01 09:08:00
  TRACK 03 AUDIO
    TITLE "Symphony № 1 C-Dur Op 21 – III. Minuetto: Allegro molto e vivace"
    PERFORMER "Beethoven"
    INDEX 00 17:09:25
    INDEX 01 17:13:00
  TRACK 04 AUDIO
    TITLE "Symphony № 1 C-Dur Op 21 – IV. Finale: Adagio, allegro molto e vivace"
    PERFORMER "Beethoven"
    INDEX 00 20:44:08
    INDEX 01 20:47:50
  TRACK 05 AUDIO
    TITLE "Symphony № 2 D-Dur Op 36 – I. Adagio molto – Allegro con brio"
    PERFORMER "Beethoven"
    INDEX 00 26:33:48
    INDEX 01 26:39:62
  TRACK 06 AUDIO
    TITLE "Symphony № 2 D-Dur Op 36 – III. Larghetto"
    PERFORMER "Beethoven"
    INDEX 00 40:03:18
    INDEX 01 40:07:62
  TRACK 07 AUDIO
    TITLE "Symphony № 2 D-Dur Op 36 – III. Scherzo"
    PERFORMER "Beethoven"
    INDEX 00 51:52:25
    INDEX 01 51:55:00
  TRACK 08 AUDIO
    TITLE "Symphony № 2 D-Dur Op 36 – IV. Allegro molto"
    PERFORMER "Beethoven"
    INDEX 00 55:29:50
    INDEX 01 55:33:07
-



Показать сообщения:    

Текущее время: 10-Дек 23:31

Часовой пояс: UTC + 3


Вы не можете начинать темы
Вы не можете отвечать на сообщения
Вы не можете редактировать свои сообщения
Вы не можете удалять свои сообщения
Вы не можете голосовать в опросах
Вы не можете прикреплять файлы к сообщениям
Вы не можете скачивать файлы