(Contemporary Classical) Zbigniew Preisner - Diaries of Hope - From the Abyss, Lament, Dream, In a Dark Hour, Epitaph (Lisa Gerrard, Archie Buchanan, Adam Klocek, Konrad Mastylo) - 2013, APE (image+.cue) lossless


 

[Цитировать]

Zbigniew Preisner - Diaries of Hope
Жанр: Contemporary Classical
Год издания диска: 2013
Издатель (лейбл): New Music B.V.
Номер по каталогу: PPCD001
Дата записи: 2013
Аудиокодек: APE
Тип рипа: image+.cue
Битрейт аудио: lossless
Источник: скачано с
сайт-источник/ник/другое
Наличие сканов в содержимом раздачи: да
Треклист:
1. From the Abyss
Warsaw Philharmonic Chamber Orchestra
2. Lament
Lisa Gerrard & Warsaw Philharmonic Chamber Orchestra
3. Dream
Archie Buchanan, Adam Klocek (cello) & Konrad Mastylo (piano)
4. In a Dark Hour
Archie Buchanan, Adam Klocek (cello) & Konrad Mastylo (piano)
5. Epitaph
Lisa Gerrard, Crouch End Festival Chorus & Warsaw Philharmonic Chamber Orchestra
Исполнители:
Warsaw Philharmonic Chamber Orchestra, Crouch End Festival Chorus, Lisa Gerrard, Archie Buchanan, Adam Klocek (cello) & Konrad Mastylo (piano).

Лог создания рипа

Exact Audio Copy V1.0 beta 2 from 29. April 2011
EAC extraction logfile from 15. December 2013, 13:12
Zbigniew Preisner / Diaries of Hope
Used drive : HL-DT-STDVD-RAM GSA-H20L Adapter: 0 ID: 0
Read mode : SecureUtilize accurate stream : YesDefeat audio cache : NoMake use of C2 pointers : No
Read offset correction : 102Overread into Lead-In and Lead-Out : NoFill up missing offset samples with silence : YesDelete leading and trailing silent blocks : NoNull samples used in CRC calculations : NoUsed interface : Native Win32 interface for Win NT & 2000
Used output format : Internal WAV RoutinesSample format : 44.100 Hz; 16 Bit; Stereo
TOC of the extracted CD
Track | Start | Length | Start sector | End sector --------------------------------------------------------- 1 | 0:00.00 | 12:17.51 | 0 | 55325 2 | 12:17.51 | 17:21.16 | 55326 | 133416 3 | 29:38.67 | 4:44.63 | 133417 | 154779 4 | 34:23.55 | 6:04.23 | 154780 | 182102 5 | 40:28.03 | 7:20.65 | 182103 | 215167
Range status and errors
Selected range
Filename C:\Zbigniew Preisner - Diaries of Hope.wav
Peak level 96.3 % Extraction speed 3.8 X Range quality 100.0 % Copy CRC B5CEF2D7 Copy OK
No errors occurred
AccurateRip summary
Track 1 accurately ripped (confidence 1) [098848DB] (AR v2)Track 2 accurately ripped (confidence 1) [DB4475C8] (AR v2)Track 3 accurately ripped (confidence 1) [94D0F31F] (AR v2)Track 4 accurately ripped (confidence 1) [B2AD27B5] (AR v2)Track 5 accurately ripped (confidence 1) [3EE9B26A] (AR v2)
All tracks accurately ripped
End of status report

Лог проверки качества

нет

Скриншот спектра частот

нет



Показать сообщения:    

Текущее время: 11-Дек 16:53

Часовой пояс: UTC + 3


Вы не можете начинать темы
Вы не можете отвечать на сообщения
Вы не можете редактировать свои сообщения
Вы не можете удалять свои сообщения
Вы не можете голосовать в опросах
Вы не можете прикреплять файлы к сообщениям
Вы не можете скачивать файлы