(Classical) Pyotr Tchaikovsky / Петр Чайковский - Symphony № 6 Op 74 / Симфония № 6 Op 74 (Radio Symphony Orchestra Ljubljana, Anton Nanut) — 1994, APE (image+.cue) lossless


 

[Цитировать]

Symphony № 6 Op 74 / Симфония № 6 Op 74- Жанр: Classical
Страна-производитель диска: Нидерланды
Год издания диска: 1994
Издатель (лейбл): ONYX Classix
Номер по каталогу: 66332
CATALOG: 5021364663323
Композитор: Pyotr Tchaikovsky / Петр Чайковский
Аудио кодек: ape
Тип рипа: image+.cue
Битрейт аудио: lossless
Продолжительность: 00h45'25"
Источник: собственный рип
Наличие сканов в содержимом раздачи: да-Треклист:
Symphony № 6 h-moll Op 74 «Pathetique»
01. I. Adagio – Allegro ma non troppo [00h18'09"]
02. II. Allegro con grazia [00h08'01"]
03. III. Allegro molto vivace [00h09'17"]
04. IV. Finale: Adagio lamentoso – Andante [00h09'58"]
Radio Symphony Orchestra Ljubljana, cond. Anton Nanut-

EAC log

Exact Audio Copy V0.99 prebeta 5 from 4. May 2009
Отчёт EAC об извлечении, выполненном 20. сентября 2014, 8:55
Tchaikovsky / Symphony № 6
Дисковод: MITSUMI CR-486ETE   Adapter: 1  ID: 0
Режим чтения                 : Достоверность
Использование точного потока : Да
Отключение кэша аудио        : Да
Использование указателей C2  : Нет
Коррекция смещения при чтении                     : 6
Способность читать области Lead-in и Lead-out     : Нет
Заполнение пропущенных сэмплов тишиной            : Да
Удаление блоков с тишиной в начале и конце        : Нет
При вычислениях CRC использовались нулевые сэмплы : Да
Интерфейс                                         : Установленный внешний ASPI-интерфейс
Выходной формат          : Monkey's Audio (без потерь)
Выбранный битрейт        : Normal Lossless Compression
Качество                 : Высокий
Добавление ID3-тэга      : Нет
Утилита сжатия           : C:\Program Files\Monkey's Audio\MAC.exe
TOC извлечённого CD
     Трек |   Старт  | Длительность | Начальный сектор | Конечный сектор
    ---------------------------------------------------------------------
       1  |  0:00.00 |   18:09.32   |           0      |      81706
       2  | 18:09.32 |    8:01.03   |       81707      |     117784
       3  | 26:10.35 |    9:16.45   |      117785      |     159529
       4  | 35:27.05 |    9:57.55   |      159530      |     204359
Характеристики диапазона извлечения и сообщения об ошибках
Выбранный диапазон
     Имя файла D:\Музыка lossless\Tchaikovsky Symphony № 6 Nanut\Tchaikovsky -  Symphony № 6.wav
     Пиковый уровень 61.7 %
     Качество диапазона 99.9 %
     CRC теста AF025BD0
     CRC копии AF025BD0
     Копирование... OK
Ошибок не произошло
AccurateRip: сводка
Трек  1  точность не определена (достоверность 1)  [C24D89D2], AccurateRip вернул  [EE204EBA]
Трек  2  точность не определена (достоверность 1)  [113F944C], AccurateRip вернул  [CEE862DB]
Трек  3  точность не определена (достоверность 1)  [5D3A0483], AccurateRip вернул  [FB3C0027]
Трек  4  точность не определена (достоверность 1)  [9A9BD6E9], AccurateRip вернул  [DF9E8197]
Ни один трек не прошёл проверки на точность
В вашей базе может быть иной вариант штамповки диска
Конец отчёта

-

CUE

REM GENRE Classical
REM DATE 1994
REM DISCID 2A0AA404
REM COMMENT "ExactAudioCopy v0.99pb5"
PERFORMER "Tchaikovsky"
TITLE "Symphony № 6"
FILE "Tchaikovsky - Symphony № 6.ape" WAVE
  TRACK 01 AUDIO
    TITLE "Symphony № 6 h-moll Op 74 «Pathetique» – I. Adagio – Allegro ma non troppo"
    PERFORMER "Tchaikovsky"
    INDEX 01 00:00:00
  TRACK 02 AUDIO
    TITLE "Symphony № 6 h-moll Op 74 «Pathetique» – II. Allegro con grazia"
    PERFORMER "Tchaikovsky"
    INDEX 00 18:00:62
    INDEX 01 18:09:32
  TRACK 03 AUDIO
    TITLE "Symphony № 6 h-moll Op 74 «Pathetique» – III. Allegro molto vivace"
    PERFORMER "Tchaikovsky"
    INDEX 00 26:04:30
    INDEX 01 26:10:35
  TRACK 04 AUDIO
    TITLE "Symphony № 6 h-moll Op 74 «Pathetique» – IV. Finale: Adagio lamentoso – Andante"
    PERFORMER "Tchaikovsky"
    INDEX 00 35:21:20
    INDEX 01 35:27:05
-



Показать сообщения:    

Текущее время: 18-Янв 00:21

Часовой пояс: UTC + 3


Вы не можете начинать темы
Вы не можете отвечать на сообщения
Вы не можете редактировать свои сообщения
Вы не можете удалять свои сообщения
Вы не можете голосовать в опросах
Вы не можете прикреплять файлы к сообщениям
Вы не можете скачивать файлы