(Orchestral) Anton Bruckner - Symphonie Nr.9 (Rundfunk-Sinfonieorchester Leipzig - Franz Konwitschny) - 2000, FLAC (image+.cue) lossless


 

[Цитировать]

Anton Bruckner - Symphonie Nr.9
Rundfunk-Sinfonieorchester Leipzig - Franz Konwitschny
-
-
-
-
- Жанр: Orchestral
Страна-производитель диска: Germany
Год издания диска: 2000
Издатель (лейбл): Weitblick
Дата записи: 22.05.1962
Аудиокодек: FLAC
Тип рипа: image+.cue
Битрейт аудио: lossless
Продолжительность: 62'56''
Источник: собственный рип
Наличие сканов в содержимом раздачи: да
Треклист:
A.Bruckner - Symphonie Nr.9:
[1] I. Feierlich, misterioso
[2] II. Scherzo. Bewegt, lebhaft
[3] III. Adagio. Langsam, feierlich
Исполнители:
Rundfunk-Sinfonieorchester Leipzig - Franz Konwitschny
-

Лог создания рипа

Exact Audio Copy V1.0 beta 3 from 29. August 2011
EAC extraction logfile from 16. March 2014, 20:50
MDR Sinfonieorchester - Franz Konwitschny / Bruckner 9
Used drive : PHILIPS CDRW1610A Adapter: 0 ID: 0
Read mode : SecureUtilize accurate stream : YesDefeat audio cache : YesMake use of C2 pointers : No
Read offset correction : 733Overread into Lead-In and Lead-Out : NoFill up missing offset samples with silence : YesDelete leading and trailing silent blocks : NoNull samples used in CRC calculations : YesUsed interface : Native Win32 interface for Win NT & 2000
Used output format : User Defined EncoderSelected bitrate : 1024 kBit/sQuality : HighAdd ID3 tag : NoCommand line compressor : C:\Program Files\FLAC\flac.exeAdditional command line options : -T"COMMENT=rip by el coronel" -8 -V %source%
TOC of the extracted CD
Track | Start | Length | Start sector | End sector --------------------------------------------------------- 1 | 0:00.00 | 23:54.62 | 0 | 107611 2 | 23:54.62 | 12:11.63 | 107612 | 162499 3 | 36:06.50 | 26:49.25 | 162500 | 283199
Range status and errors
Selected range
Filename D:\Bruckner 9 (Konwitschny).wav
Peak level 81.0 % Extraction speed 8.6 X Range quality 100.0 % Test CRC A81B4740 Copy CRC A81B4740 Copy OK
No errors occurred
End of status report
==== Log checksum CBFC802FEED0B919E4D0FBDD5B410D731AF25F946C1287CBD3E34536539FEDB9 ====

Содержание индексной карты (.CUE)

REM GENRE ClassicalREM DATE 2000REM DISCID 210EC003REM COMMENT "ExactAudioCopy v1.0b3"PERFORMER "MDR Sinfonieorchester - Franz Konwitschny"TITLE "Bruckner 9"FILE "Bruckner 9 (Konwitschny).flac" WAVE TRACK 01 AUDIO TITLE "I. Feierlich, misterioso" PERFORMER "MDR Sinfonieorchester - Franz Konwitschny" INDEX 01 00:00:00 TRACK 02 AUDIO TITLE "II. Scherzo. Bewegt, lebhaft" PERFORMER "MDR Sinfonieorchester - Franz Konwitschny" INDEX 00 23:45:01 INDEX 01 23:54:62 TRACK 03 AUDIO TITLE "III. Adagio. Langsam, feierlich" PERFORMER "MDR Sinfonieorchester - Franz Konwitschny" INDEX 00 35:57:46 INDEX 01 36:06:50

-
-- -
-
-



Показать сообщения:    

Текущее время: 11-Дек 03:23

Часовой пояс: UTC + 3


Вы не можете начинать темы
Вы не можете отвечать на сообщения
Вы не можете редактировать свои сообщения
Вы не можете удалять свои сообщения
Вы не можете голосовать в опросах
Вы не можете прикреплять файлы к сообщениям
Вы не можете скачивать файлы