(Orchestral) Н.А.Римский-Корсаков - Шехеразада, А.П. Бородин - Половецкие танцы (Князь Игорь) / Rimsky-Korsakov - Scheherazade, Borodin - Polovtsian Dances (Royal Philharmonic Orchestra, Staryk, Thomas Beecham) - 1987, FLAC (image+.cue) lossless


 

[Цитировать]

Nikolai Rimsky-Korsakov - Scheherazade | Alexander Borodin - Polovtsian Dances
Royal Philharmonic Orchestra | Thomas Beecham
Жанр: Orchestral
Страна-производитель диска: UK
Год издания диска: 1987
Издатель (лейбл): EMI
Номер по каталогу: CDC 747717 2
Дата записи: 1957 (Scheherazade), 1956 (Polovtsian Dances)
Аудиокодек: FLAC
Тип рипа: image+.cue
Битрейт аудио: lossless
Продолжительность: 58:03
Источник: скачано с
сайт-источник/ник/другое: web
Наличие сканов в содержимом раздачи: да
Треклист:
Rimsky-Korsakov - Scheherazade, symphonic suite for orchestra, Op. 35
1 "The Sea and Sinbad's ship" in E major 10:04
2 "The story of Kalender Prince" in B minor 12:02
3 "The Young Prince and the young Princess" in G major 10:42
4 "Festival at Baghdad - The Sea" in E major 13:00
Borodin - Polvtsian Dances from "Prince Igor"
5. Introduction: Andantino 2:34
6. Allegro vivo 1:16
7. Allegro 2:17
8. Presto 1:29
9. Moderato all breve 1:33
10. Presto 1:33
11. Allegro con spirito 1:31
Исполнители:
Royal Philharmonic Orchestra
Beecham Choral Society

Thomas Beecham - сonductor
Steven Staryk - violin (Scheherazade)

Лог создания рипа

Exact Audio Copy V1.0 beta 1 from 15. November 2010
EAC extraction logfile from 28. July 2011, 16:06
Royal Philharmonic Orchestra, Sir Thomas Beecham / Rimsky-Korsakov: Scheherazase; Borodin: Polovtsian Dances
Used drive : LITE-ON LTR-16102B Adapter: 1 ID: 0
Read mode : SecureUtilize accurate stream : YesDefeat audio cache : YesMake use of C2 pointers : No
Read offset correction : 12Overread into Lead-In and Lead-Out : NoFill up missing offset samples with silence : YesDelete leading and trailing silent blocks : NoNull samples used in CRC calculations : YesUsed interface : Native Win32 interface for Win NT & 2000
Used output format : Internal WAV RoutinesSample format : 44.100 Hz; 16 Bit; Stereo
TOC of the extracted CD
Track | Start | Length | Start sector | End sector --------------------------------------------------------- 1 | 0:00.33 | 10:04.22 | 33 | 45354 2 | 10:04.55 | 12:06.23 | 45355 | 99827 3 | 22:11.03 | 10:46.22 | 99828 | 148299 4 | 32:57.25 | 12:55.40 | 148300 | 206464 5 | 45:52.65 | 2:32.10 | 206465 | 217874 6 | 48:25.00 | 1:16.30 | 217875 | 223604 7 | 49:41.30 | 2:17.35 | 223605 | 233914 8 | 51:58.65 | 1:29.13 | 233915 | 240602 9 | 53:28.03 | 1:33.22 | 240603 | 247599 10 | 55:01.25 | 1:33.45 | 247600 | 254619 11 | 56:34.70 | 1:28.45 | 254620 | 261264
Range status and errors
Selected range
Filename F:\music\Beecham - Rimsky-Korsakov Scheherazase\CDImage.wav
Peak level 100.0 % Extraction speed 0.1 X Range quality 100.0 % Copy CRC 7CFB52E7 Copy OK
No errors occurred
AccurateRip summary
Track 1 accurately ripped (confidence 5) [F6DB5CC9]Track 2 accurately ripped (confidence 4) [9157BE58]Track 3 accurately ripped (confidence 4) [28A4BD59]Track 4 accurately ripped (confidence 5) [3BDC13B4]Track 5 accurately ripped (confidence 5) [C566C32A]Track 6 accurately ripped (confidence 5) [D70D9E6E]Track 7 accurately ripped (confidence 5) [303F44F9]Track 8 accurately ripped (confidence 5) [95864396]Track 9 accurately ripped (confidence 5) [30997A82]Track 10 accurately ripped (confidence 5) [E4B5188F]Track 11 accurately ripped (confidence 4) [6DE5E959]
All tracks accurately ripped
End of status report

Лог проверки качества

AUDIOCHECKER v2.0 beta (build 457) - by Dester - opdester@freemail.hu~~~~~~~~~~~~~~~~~~~~~~~~~~~~~~~~~~-=== DO NOT EDIT THIS FILE! ===-
Path: ...\Rimsky-Korsakov - Scheherazade (Beecham)
1 -=- CDImage.flac -=- CDDA (62%)
153021428



Показать сообщения:    

Текущее время: 08-Дек 07:09

Часовой пояс: UTC + 3


Вы не можете начинать темы
Вы не можете отвечать на сообщения
Вы не можете редактировать свои сообщения
Вы не можете удалять свои сообщения
Вы не можете голосовать в опросах
Вы не можете прикреплять файлы к сообщениям
Вы не можете скачивать файлы