(Classical) Ludwig van Beethoven — Symphony № 9 Op 125 (Hamburg Symphony Orchestra, cond. Werner Ludwig Baum) — 1996, APE (image+.cue) lossless


 

[Цитировать]

Symphony № 9 Op 125- Жанр: Classical
Страна-производитель диска: Великобритания
Год издания диска: 1996
Издатель (лейбл): Newsound Ltd / Apollo Classics
Номер по каталогу: PYCD 322
CATALOG: 5028376103229
Композитор: Ludwig van Beethoven
Аудио кодек: ape
Тип рипа: image+.cue
Битрейт аудио: lossless
Продолжительность: 01h05'26"
Источник: собственный рип
Наличие сканов в содержимом раздачи: нет-Треклист:
Symphony № 9 d-moll Op 125 «Choral»
01. I. Allegro ma non troppo [00h15'48"]
02. II. Molto vivace [00h10'48"]
03. III. Adagio molto cantabile [00h14'52"]
04. IV. Finale [00h23'57"]
Hamburg Symphony Orchestra – cond. Werner Ludwig Baum-

EAC log

Exact Audio Copy V0.99 prebeta 5 from 4. May 2009
Отчёт EAC об извлечении, выполненном 14. сентября 2014, 22:19
Beethoven / Symphony № 9
Дисковод: PIONEER DVD-RW  DVR-111D   Adapter: 1  ID: 0
Режим чтения                 : Достоверность
Использование точного потока : Да
Отключение кэша аудио        : Да
Использование указателей C2  : Нет
Коррекция смещения при чтении                     : 48
Способность читать области Lead-in и Lead-out     : Нет
Заполнение пропущенных сэмплов тишиной            : Да
Удаление блоков с тишиной в начале и конце        : Нет
При вычислениях CRC использовались нулевые сэмплы : Да
Интерфейс                                         : Установленный внешний ASPI-интерфейс
Выходной формат          : Monkey's Audio (без потерь)
Выбранный битрейт        : Normal Lossless Compression
Качество                 : Высокий
Добавление ID3-тэга      : Нет
Утилита сжатия           : C:\Program Files\Monkey's Audio\MAC.exe
TOC извлечённого CD
     Трек |   Старт  | Длительность | Начальный сектор | Конечный сектор
    ---------------------------------------------------------------------
       1  |  0:00.00 |   15:48.12   |           0      |      71111
       2  | 15:48.12 |   10:48.23   |       71112      |     119734
       3  | 26:36.35 |   14:51.67   |      119735      |     186626
       4  | 41:28.27 |   23:57.20   |      186627      |     294421
Характеристики диапазона извлечения и сообщения об ошибках
Выбранный диапазон
     Имя файла D:\Музыка lossless\Beethoven Symphony № 9 Baum\Beethoven - Symphony № 9.wav
     Пиковый уровень 100.0 %
     Качество диапазона 100.0 %
     CRC теста 4CA94C14
     CRC копии 4CA94C14
     Копирование... OK
Ошибок не произошло
AccurateRip: сводка
Трек  1  точность не определена (достоверность 7)  [4AE014A0], AccurateRip вернул [AE9AD463]
Трек  2  точность не определена (достоверность 7)  [7C3807CE], AccurateRip вернул [06FFF010]
Трек  3  точность не определена (достоверность 7)  [5D15A778], AccurateRip вернул [17C51003]
Трек  4  точность не определена (достоверность 5)  [AA7D6593], AccurateRip вернул [A26EE26C]
Ни один трек не прошёл проверки на точность
В вашей базе может быть иной вариант штамповки диска
Конец отчёта

-

CUE

REM GENRE Classical
REM DATE 1996
REM DISCID 360F5504
REM COMMENT "ExactAudioCopy v0.99pb5"
PERFORMER "Beethoven"
TITLE "Symphony № 9"
FILE "Beethoven - Symphony № 9.ape" WAVE
  TRACK 01 AUDIO
    TITLE "Symphony № 9 d-moll Op 125 «Choral» – I. Allegro ma non troppo"
    PERFORMER "Beethoven"
    INDEX 01 00:00:00
  TRACK 02 AUDIO
    TITLE "Symphony № 9 d-moll Op 125 «Choral» – II. Molto vivace"
    PERFORMER "Beethoven"
    INDEX 00 15:41:27
    INDEX 01 15:48:12
  TRACK 03 AUDIO
    TITLE "Symphony № 9 d-moll Op 125 «Choral» – III. Adagio molto cantabile"
    PERFORMER "Beethoven"
    INDEX 00 26:30:22
    INDEX 01 26:36:35
  TRACK 04 AUDIO
    TITLE "Symphony № 9 d-moll Op 125 «Choral» – IV. Finale"
    PERFORMER "Beethoven"
    INDEX 00 41:22:55
    INDEX 01 41:28:27
-



Показать сообщения:    

Текущее время: 07-Дек 00:54

Часовой пояс: UTC + 3


Вы не можете начинать темы
Вы не можете отвечать на сообщения
Вы не можете редактировать свои сообщения
Вы не можете удалять свои сообщения
Вы не можете голосовать в опросах
Вы не можете прикреплять файлы к сообщениям
Вы не можете скачивать файлы