(Classical) Wolfgang Amadeus Mozart — Symphonies № 36 & 39 (KV 425 & 543) (Alfred Scholz) — 1994, APE (image+.cue) lossless


 

[Цитировать]

Symphonies № 36 & 39 (KV 425 & 543)- Жанр: Classical
Страна-производитель диска: Германия
Год издания диска: 1994
Издатель (лейбл): Point Classics
Номер по каталогу: 2671122
CATALOG: 027726711225
Композитор: Wolfgang Amadeus Mozart
Аудио кодек: ape
Тип рипа: image+.cue
Битрейт аудио: lossless
Продолжительность: 01h03'52"
Источник: собственный рип
Наличие сканов в содержимом раздачи: нет-Треклист:
Symphony № 36 C-Dur KV 425 «Linzer»
01. I. Adagio – Allegro spiritoso [00h10'30"]
02. II. Poco adagio [00h09'51"]
03. III. Menuetto [00h03'27"]
04. IV. Finale: Presto [00h07'16"]
Symphony № 39 Es-Dur KV 543
05. I. Adagio [00h11'20"]
06. II. Andante con moto [00h08'57"]
07. III. Menuetto: Allegro [00h04'14"]
08. IV. Finale: Allegro [00h08'16"]
Mozart Festival Orchestra, cond. Alfred Scholz-

EAC log

Exact Audio Copy V0.99 prebeta 5 from 4. May 2009
Отчёт EAC об извлечении, выполненном 14. сентября 2014, 18:20
Mozart / Symphonies № 36 & № 39
Дисковод: PIONEER DVD-RW  DVR-111D   Adapter: 1  ID: 0
Режим чтения                 : Достоверность
Использование точного потока : Да
Отключение кэша аудио        : Да
Использование указателей C2  : Нет
Коррекция смещения при чтении                     : 48
Способность читать области Lead-in и Lead-out     : Нет
Заполнение пропущенных сэмплов тишиной            : Да
Удаление блоков с тишиной в начале и конце        : Нет
При вычислениях CRC использовались нулевые сэмплы : Да
Интерфейс                                         : Установленный внешний ASPI-интерфейс
Выходной формат          : Monkey's Audio (без потерь)
Выбранный битрейт        : Normal Lossless Compression
Качество                 : Высокий
Добавление ID3-тэга      : Нет
Утилита сжатия           : C:\Program Files\Monkey's Audio\MAC.exe
TOC извлечённого CD
     Трек |   Старт  | Длительность | Начальный сектор | Конечный сектор
    ---------------------------------------------------------------------
       1  |  0:00.00 |   10:30.20   |           0      |      47269
       2  | 10:30.20 |    9:51.10   |       47270      |      91604
       3  | 20:21.30 |    3:27.32   |       91605      |     107161
       4  | 23:48.62 |    7:16.05   |      107162      |     139866
       5  | 31:04.67 |   11:20.13   |      139867      |     190879
       6  | 42:25.05 |    8:56.57   |      190880      |     231136
       7  | 51:21.62 |    4:14.15   |      231137      |     250201
       8  | 55:36.02 |    8:15.58   |      250202      |     287384
Характеристики диапазона извлечения и сообщения об ошибках
Выбранный диапазон
     Имя файла D:\Музыка lossless\Mozart Symphonies № 36 & 39 Scholz\Mozart - Symphonies № 36 & № 39.wav
     Пиковый уровень 99.9 %
     Качество диапазона 100.0 %
     CRC теста F1EE892A
     CRC копии F1EE892A
     Копирование... OK
Ошибок не произошло
AccurateRip: сводка
Трек  1  точность не определена (достоверность 1)  [4F74413B], AccurateRip вернул [894F20EA]
Трек  2  точность не определена (достоверность 1)  [EFC187F8], AccurateRip вернул [4E72DFAE]
Трек  3  точность не определена (достоверность 1)  [D8519FB8], AccurateRip вернул [F8EA2D98]
Трек  4  точность не определена (достоверность 1)  [5022BE05], AccurateRip вернул [8F92FC7D]
Трек  5  точность не определена (достоверность 1)  [F16C38E5], AccurateRip вернул [5C30F786]
Трек  6  точность не определена (достоверность 1)  [BAD30664], AccurateRip вернул [01100779]
Трек  7  точность не определена (достоверность 1)  [44E56F35], AccurateRip вернул [52EA965E]
Трек  8  точность не определена (достоверность 1)  [479A5D48], AccurateRip вернул [9D686E8C]
Ни один трек не прошёл проверки на точность
В вашей базе может быть иной вариант штамповки диска
Конец отчёта

-

CUE

REM GENRE Classical
REM DATE 1994
REM DISCID 630EF708
REM COMMENT "ExactAudioCopy v0.99pb5"
PERFORMER "Mozart"
TITLE "Symphonies № 36 & № 39"
FILE "Mozart - Symphonies № 36 & № 39.ape" WAVE
  TRACK 01 AUDIO
    TITLE "Symphony № 36 C-Dur KV 425 «Linzer» – I. Adagio – Allegro spiritoso"
    PERFORMER "Mozart"
    INDEX 01 00:00:00
  TRACK 02 AUDIO
    TITLE "Symphony № 36 C-Dur KV 425 «Linzer» – II. Poco adagio"
    PERFORMER "Mozart"
    INDEX 00 10:25:52
    INDEX 01 10:30:20
  TRACK 03 AUDIO
    TITLE "Symphony № 36 C-Dur KV 425 «Linzer» – III. Menuetto"
    PERFORMER "Mozart"
    INDEX 00 20:20:35
    INDEX 01 20:21:30
  TRACK 04 AUDIO
    TITLE "Symphony № 36 C-Dur KV 425 «Linzer» – IV. Finale: Presto"
    PERFORMER "Mozart"
    INDEX 00 23:44:70
    INDEX 01 23:48:62
  TRACK 05 AUDIO
    TITLE "Symphony № 39 Es-Dur KV 543 – I. Adagio"
    PERFORMER "Mozart"
    INDEX 00 30:58:47
    INDEX 01 31:04:67
  TRACK 06 AUDIO
    TITLE "Symphony № 39 Es-Dur KV 543 – II. Andante con moto"
    PERFORMER "Mozart"
    INDEX 00 42:23:67
    INDEX 01 42:25:05
  TRACK 07 AUDIO
    TITLE "Symphony № 39 Es-Dur KV 543 – III. Menuetto: Allegro"
    PERFORMER "Mozart"
    INDEX 00 51:20:07
    INDEX 01 51:21:62
  TRACK 08 AUDIO
    TITLE "Symphony № 39 Es-Dur KV 543 – IV. Finale: Allegro"
    PERFORMER "Mozart"
    INDEX 00 55:32:62
    INDEX 01 55:36:02
-



Показать сообщения:    

Текущее время: 08-Дек 01:19

Часовой пояс: UTC + 3


Вы не можете начинать темы
Вы не можете отвечать на сообщения
Вы не можете редактировать свои сообщения
Вы не можете удалять свои сообщения
Вы не можете голосовать в опросах
Вы не можете прикреплять файлы к сообщениям
Вы не можете скачивать файлы