(Orchestral, Impressionism) Отторино Респиги - Витражи собора & Бразильские впечатления/ Ottorino Respighi - Church Windows & Brazlian Impressions (Philharmonia Orchestra London, Geoffrey Simon) - 1984, FLAC (tracks+.cue) lossless


 

[Цитировать]

Ottorino Respighi - Church Windows & Brazlian Impressions
Жанр: Orchestral, Impressionism
Страна-производитель диска: UK
Год издания диска: 1984
Издатель (лейбл): Chandos
Номер по каталогу: CHAN 8317
Дата записи: 1984
Аудиокодек: FLAC
Тип рипа: tracks+.cue
Битрейт аудио: lossless
Продолжительность: 44'50
Источник: скачано с
Наличие сканов в содержимом раздачи: да
Треклист:
Ottorino Respighi (1879–1936)
Витражи собора (Vetrate di chiesa) четыре симфонических впечатления, 1926 (26'17)
01 I. The flight into Egypt
02 II. St Michael the Arcangel
03 III. The Matins of Saint Claire
04 IV. St Gregory the Great
Бразильские впечатления (Impressioni brasiliane), 1928 (18'30)
05 I. Tropical night
06 II. Butantan (In a snake-garden near Sao Paulo)
07 III. Song and dance
Исполнители:
Philharmonia Orchestra London
Geoffrey Simon, conductor
Recorded in All Sainis' Church, London, Jan 1984

Лог создания рипа

Exact Audio Copy V0.99 prebeta 4 from 23. January 2008
EAC extraction logfile from 27. September 2009, 22:37
Ottorino Respighi / Church Windows, Brazilian Impressions (Geoffrey Simon w/ Philharmonia Orchestra)
Used drive : ATAPI DVD D DH16D3P Adapter: 0 ID: 1
Read mode : SecureUtilize accurate stream : YesDefeat audio cache : YesMake use of C2 pointers : No
Read offset correction : 6Overread into Lead-In and Lead-Out : NoFill up missing offset samples with silence : YesDelete leading and trailing silent blocks : NoNull samples used in CRC calculations : YesUsed interface : Installed external ASPI interfaceGap handling : Appended to previous track
Used output format : User Defined EncoderSelected bitrate : 1024 kBit/sQuality : HighAdd ID3 tag : NoCommand line compressor : C:\Program Files\Exact Audio Copy\FLAC\FLAC.EXEAdditional command line options : -6 -V -T "ARTIST=%a" -T "TITLE=%t" -T "ALBUM=%g" -T "DATE=%y" -T "TRACKNUMBER=%n" -T "GENRE=%m" -T "COMMENT=%e" %s -o %d
TOC of the extracted CD
Track | Start | Length | Start sector | End sector --------------------------------------------------------- 1 | 0:00.32 | 5:37.68 | 32 | 25374 2 | 5:38.25 | 5:47.52 | 25375 | 51451 3 | 11:26.02 | 5:34.05 | 51452 | 76506 4 | 17:00.07 | 9:43.68 | 76507 | 120299 5 | 26:44.00 | 9:43.52 | 120300 | 164076 6 | 36:27.52 | 4:51.03 | 164077 | 185904 7 | 41:18.55 | 4:04.12 | 185905 | 204216
Track 1
Filename E:\Music\Respighi\Church Windows, Brazilian Impressions\01 - Church Windows - The Flight into Egypt.wav
Pre-gap length 0:00:02.42
Peak level 63.0 % Track quality 100.0 % Test CRC 70E0D7F3 Copy CRC 70E0D7F3 Accurately ripped (confidence 4) [C623448F] Copy OK
Track 2
Filename E:\Music\Respighi\Church Windows, Brazilian Impressions\02 - St. Michael Archangel.wav
Pre-gap length 0:00:02.44
Peak level 100.0 % Track quality 99.9 % Test CRC 79D5549F Copy CRC 79D5549F Accurately ripped (confidence 4) [DF5E3043] Copy OK
Track 3
Filename E:\Music\Respighi\Church Windows, Brazilian Impressions\03 - The Matins of St. Clare.wav
Pre-gap length 0:00:00.46
Peak level 65.1 % Track quality 99.9 % Test CRC FB862A4F Copy CRC FB862A4F Accurately ripped (confidence 4) [58722BEE] Copy OK
Track 4
Filename E:\Music\Respighi\Church Windows, Brazilian Impressions\04 - St. Gregory the Great.wav
Pre-gap length 0:00:03.76
Peak level 100.0 % Track quality 100.0 % Test CRC 0C7064D7 Copy CRC 0C7064D7 Accurately ripped (confidence 4) [938E8686] Copy OK
Track 5
Filename E:\Music\Respighi\Church Windows, Brazilian Impressions\05 - Brazilian Impressions - Tropical Night.wav
Pre-gap length 0:00:05.93
Peak level 79.3 % Track quality 100.0 % Test CRC D59911D8 Copy CRC D59911D8 Accurately ripped (confidence 4) [930F0D74] Copy OK
Track 6
Filename E:\Music\Respighi\Church Windows, Brazilian Impressions\06 - Butantan (In a snake-garden near Sao Paulo).wav
Pre-gap length 0:00:03.20
Peak level 100.0 % Track quality 100.0 % Test CRC D190E3F8 Copy CRC D190E3F8 Accurately ripped (confidence 4) [E7D513D5] Copy OK
Track 7
Filename E:\Music\Respighi\Church Windows, Brazilian Impressions\07 - Song and Dance.wav
Pre-gap length 0:00:01.13
Peak level 100.0 % Track quality 100.0 % Test CRC 14ACD251 Copy CRC 14ACD251 Accurately ripped (confidence 4) [B83C2226] Copy OK
All tracks accurately ripped
No errors occurred
End of status report

Содержание индексной карты (.CUE)

REM GENRE ClassicalREM DATE 1984REM DISCID 530AA207REM COMMENT "ExactAudioCopy v0.99pb4"FILE "01 - Church Windows - The Flight into Egypt.wav" WAVE TRACK 01 AUDIO PREGAP 00:00:32 INDEX 01 00:00:00 TRACK 02 AUDIO INDEX 00 05:35:35FILE "02 - St. Michael Archangel.wav" WAVE INDEX 01 00:00:00 TRACK 03 AUDIO INDEX 00 05:47:17FILE "03 - The Matins of St. Clare.wav" WAVE INDEX 01 00:00:00 TRACK 04 AUDIO INDEX 00 05:30:23FILE "04 - St. Gregory the Great.wav" WAVE INDEX 01 00:00:00 TRACK 05 AUDIO INDEX 00 09:37:73FILE "05 - Brazilian Impressions - Tropical Night.wav" WAVE INDEX 01 00:00:00 TRACK 06 AUDIO INDEX 00 09:40:37FILE "06 - Butantan (In a snake-garden near Sao Paulo).wav" WAVE INDEX 01 00:00:00 TRACK 07 AUDIO INDEX 00 04:49:68FILE "07 - Song and Dance.wav" WAVE INDEX 01 00:00:00
Доп. информация: "Витражи собора" и "Бразильские впечатления" - одни из самых красочных и мелодичных работ Респиги, созданных в период расцвета его творчества под влиянием Римского-Корсакова и Дебюсси. Каждая часть "Витражей" (1926) связана с определённым библейским событием и соответствующими ему сценами из витражей. I. "Бегство в Египет" - восточная ночь и маленький караван идущий через пустыню. II. "Архангел Михаил" - небесная битва с потрясающими фоническими эффектами (финальное тройное форте там-тама в своё время вызвало сенсацию). III. "Утро в монастыре святой Клары" - утреннее монастырское спокойствие. IV. "Святой Григорий Великий" - величественный гимн богу под колокольный звон. "Бразильские впечатления" (1928) написаны после концертной поездки в Рио-де-Жанейро и Сан-Паулу. В перерывах между выступлениями Респиги изучал бразильскую народную музыку, и перед отъездом пообещал поклонникам сочинить сюиту, что и сделал. Открывающий сюиту ноктюрн "Тропическая ночь" - атмосферный музыкальный сувенир, основанный на танцевальном ритме и народной песне, томный, а иногда и чувственный. Вторая часть - воспоминания от посещения Института Бутантан где держали ядовитых змей для производства лекарств. С помощью ползучих тем фагота и бубна, подкреплённых мотивом Судного дня (Dies irae), композитор изображает зловещий портрет гремучей змеи. В заключительном номере царит карнавальная атмосфера в ритме самбы.



Показать сообщения:    

Текущее время: 08-Дек 23:07

Часовой пояс: UTC + 3


Вы не можете начинать темы
Вы не можете отвечать на сообщения
Вы не можете редактировать свои сообщения
Вы не можете удалять свои сообщения
Вы не можете голосовать в опросах
Вы не можете прикреплять файлы к сообщениям
Вы не можете скачивать файлы