(Classical) Albinoni / Corelli / Galuppi / Tartini / Manfredini / Torelli — Great Masters of the Italian Baroque (Bohdan Warchal) — 1995, APE (image+.cue) lossless


 

[Цитировать]

Great Masters of the Italian Baroque- Жанр: Classical
Страна-производитель дисков: Чехия
Год издания дисков: 1995
Издатель (лейбл): Selected Sound Carrier (Prestige classics)
Номера по каталогу: 5143 (CD 1930.2084-2 / CD 1930.2085-2)
CATALOG: 7619929159923
Аудио кодек: ape
Тип рипа: image+.cue
Битрейт аудио: lossless
Продолжительность: 02h19'49"
Источник: собственный рип
Наличие сканов в содержимом раздачи: да-

Треклист

CD1 – 01h12'31"
Tommaso Giovanni Albinoni
Concerto № 7
01. I. Allegro [00h03'05"]
02. II. Adagio [00h02'04"]
03. III. Allegro [00h02'32"]
Concerto № 5
04. I. Allegro [00h04'23"]
05. II. Minuetto [00h04'31"]
06. III. Allegro [00h02'02"]
Francesco Onofrio Manfredini
Symphony № 10 e-moll
07. I. Adagio e spicco [00h02'23"]
08. II. Andante [00h03'02"]
09. III. Non tan largo [00h02'32"]
10. IV. Presto [00h01'44"]
Arcangelo Corelli
11. Sarabande [00h03'19"]
12. Gigue [00h02'31"]
13. Badinerie [00h01'02"]
Concerto Grosso Op 6 № 1 D-Dur
14. I. Largo. Allegro [00h03'13"]
15. II. Largo. Allegro [00h03'27"]
16. III. Largo. Allegro [00h05'58"]
17. IV. Allegro [00h02'16"]
Concerto Grosso Op 6 № 3 c-moll
18. I. Largo. Allegro [00h05'07"]
19. II. Grave. Vivace [00h04'13"]
20. III. Allegro [00h02'32"]
Concerto Grosso Op 6 № 7 D-Dur
21. I. Vivace. Allegro. Adagio [00h02'56"]
22. II. Allegro [00h02'08"]
23. III. Andante largo. Allegro [00h04'16"]
24. IV. Vivace [00h01'12"]-

EAC log

Exact Audio Copy V0.99 prebeta 5 from 4. May 2009
EAC extraction logfile from 12. September 2014, 20:23
Various / Great Masters of the Italian Baroque
Used drive  : PIONEER DVD-RW  DVR-111D   Adapter: 1  ID: 0
Read mode               : Secure
Utilize accurate stream : Yes
Defeat audio cache      : Yes
Make use of C2 pointers : No
Read offset correction                      : 48
Overread into Lead-In and Lead-Out          : No
Fill up missing offset samples with silence : Yes
Delete leading and trailing silent blocks   : No
Null samples used in CRC calculations       : Yes
Used interface                              : Installed external ASPI interface
Used output format              : Monkey's Audio Lossless Encoder
Selected bitrate                : Normal Lossless Compression
Quality                         : High
Add ID3 tag                     : No
Command line compressor         : C:\Program Files\Monkey's Audio\MAC.exe
TOC of the extracted CD
     Track |   Start  |  Length  | Start sector | End sector
    ---------------------------------------------------------
        1  |  0:00.32 |  3:04.55 |        32    |    13886
        2  |  3:05.12 |  2:03.40 |     13887    |    23151
        3  |  5:08.52 |  2:32.33 |     23152    |    34584
        4  |  7:41.10 |  4:22.72 |     34585    |    54306
        5  | 12:04.07 |  4:30.68 |     54307    |    74624
        6  | 16:35.00 |  2:02.15 |     74625    |    83789
        7  | 18:37.15 |  2:23.35 |     83790    |    94549
        8  | 21:00.50 |  3:02.35 |     94550    |   108234
        9  | 24:03.10 |  2:32.32 |    108235    |   119666
       10  | 26:35.42 |  1:44.08 |    119667    |   127474
       11  | 28:19.50 |  3:19.10 |    127475    |   142409
       12  | 31:38.60 |  2:30.60 |    142410    |   153719
       13  | 34:09.45 |  1:01.70 |    153720    |   158364
       14  | 35:11.40 |  3:13.12 |    158365    |   172851
       15  | 38:24.52 |  3:27.13 |    172852    |   188389
       16  | 41:51.65 |  5:58.07 |    188390    |   215246
       17  | 47:49.72 |  2:16.25 |    215247    |   225471
       18  | 50:06.22 |  5:07.10 |    225472    |   248506
       19  | 55:13.32 |  4:12.70 |    248507    |   267476
       20  | 59:26.27 |  2:32.05 |    267477    |   278881
       21  | 61:58.32 |  2:56.18 |    278882    |   292099
       22  | 64:54.50 |  2:08.27 |    292100    |   301726
       23  | 67:03.02 |  4:15.40 |    301727    |   320891
       24  | 71:18.42 |  1:12.00 |    320892    |   326291
Range status and errors
Selected range
     Filename D:\Музыка lossless\Great Masters of the Italian Baroque\CD1\Various - Great Masters of the Italian Baroque.wav
     Peak level 97.7 %
     Range quality 100.0 %
     Test CRC 1B3A1D32
     Copy CRC 1B3A1D32
     Copy OK
No errors occurred
AccurateRip summary
Track  1  accurately ripped (confidence 1)  [D268CEB4]
Track  2  accurately ripped (confidence 1)  [E0ED8A6C]
Track  3  accurately ripped (confidence 1)  [6637BE33]
Track  4  accurately ripped (confidence 1)  [E6752A3D]
Track  5  accurately ripped (confidence 1)  [B288A12D]
Track  6  accurately ripped (confidence 1)  [A8297708]
Track  7  accurately ripped (confidence 1)  [764E9F3D]
Track  8  accurately ripped (confidence 1)  [483EC528]
Track  9  accurately ripped (confidence 1)  [A9A371D4]
Track 10  accurately ripped (confidence 1)  [39C0DE57]
Track 11  accurately ripped (confidence 1)  [638B3DBC]
Track 12  accurately ripped (confidence 1)  [E5E77F2D]
Track 13  accurately ripped (confidence 1)  [F7AECB8A]
Track 14  accurately ripped (confidence 1)  [034D0BCE]
Track 15  accurately ripped (confidence 1)  [F05C6E57]
Track 16  accurately ripped (confidence 1)  [451B3EFD]
Track 17  accurately ripped (confidence 1)  [3786C9C4]
Track 18  accurately ripped (confidence 1)  [79581E19]
Track 19  accurately ripped (confidence 1)  [71722E31]
Track 20  accurately ripped (confidence 1)  [4344660B]
Track 21  accurately ripped (confidence 1)  [01397245]
Track 22  accurately ripped (confidence 1)  [53976789]
Track 23  accurately ripped (confidence 1)  [11F447DA]
Track 24  accurately ripped (confidence 1)  [C67DB6D5]
All tracks accurately ripped
End of status report

-

CUE

REM GENRE Classical
REM DATE 1995
REM DISCID 3D10FE18
REM COMMENT "ExactAudioCopy v0.99pb5"
PERFORMER "Various"
TITLE "Great Masters of the Italian Baroque"
FILE "Various - Great Masters of the Italian Baroque.ape" WAVE
  TRACK 01 AUDIO
    TITLE "Concerto № 7 – I. Allegro"
    PERFORMER "Albinoni"
    INDEX 00 00:00:00
    INDEX 01 00:00:32
  TRACK 02 AUDIO
    TITLE "Concerto № 7 – II. Adagio"
    PERFORMER "Albinoni"
    INDEX 00 03:03:42
    INDEX 01 03:05:12
  TRACK 03 AUDIO
    TITLE "Concerto № 7 – III. Allegro"
    PERFORMER "Albinoni"
    INDEX 01 05:08:52
  TRACK 04 AUDIO
    TITLE "Concerto № 5 – I. Allegro"
    PERFORMER "Albinoni"
    INDEX 00 07:33:65
    INDEX 01 07:41:10
  TRACK 05 AUDIO
    TITLE "Concerto №5 – II. Minuetto"
    PERFORMER "Albinoni"
    INDEX 00 12:02:00
    INDEX 01 12:04:07
  TRACK 06 AUDIO
    TITLE "Concerto № 5 – III. Allegro"
    PERFORMER "Albinoni"
    INDEX 00 16:34:37
    INDEX 01 16:35:00
  TRACK 07 AUDIO
    TITLE "Symphony № 10 e-moll – I. Adagio e spicco"
    PERFORMER "Manfredini"
    INDEX 00 18:33:05
    INDEX 01 18:37:15
  TRACK 08 AUDIO
    TITLE "Symphony № 10 e-moll – II. Andante"
    PERFORMER "Manfredini"
    INDEX 00 20:57:50
    INDEX 01 21:00:50
  TRACK 09 AUDIO
    TITLE "Symphony № 10 e-moll – III. Non tan largo"
    PERFORMER "Manfredini"
    INDEX 00 24:00:20
    INDEX 01 24:03:10
  TRACK 10 AUDIO
    TITLE "Symphony № 10 e-moll – IV. Presto"
    PERFORMER "Manfredini"
    INDEX 00 26:32:20
    INDEX 01 26:35:42
  TRACK 11 AUDIO
    TITLE "Sarabande"
    PERFORMER "Corelli"
    INDEX 00 28:17:27
    INDEX 01 28:19:50
  TRACK 12 AUDIO
    TITLE "Gigue"
    PERFORMER "Corelli"
    INDEX 00 31:34:52
    INDEX 01 31:38:60
  TRACK 13 AUDIO
    TITLE "Badinerie"
    PERFORMER "Corelli"
    INDEX 00 34:07:35
    INDEX 01 34:09:45
  TRACK 14 AUDIO
    TITLE "Concerto Grosso Op 6 № 1 D-Dur – I. Largo. Allegro"
    PERFORMER "Corelli"
    INDEX 00 35:08:30
    INDEX 01 35:11:40
  TRACK 15 AUDIO
    TITLE "Concerto Grosso Op 6 № 1 D-Dur – II. Largo. Allegro"
    PERFORMER "Corelli"
    INDEX 01 38:24:52
  TRACK 16 AUDIO
    TITLE "Concerto Grosso Op 6 № 1 D-Dur – III. Largo. Allegro"
    PERFORMER "Corelli"
    INDEX 00 41:51:02
    INDEX 01 41:51:65
  TRACK 17 AUDIO
    TITLE "Concerto Grosso Op 6 № 1 D-Dur – IV. Allegro"
    PERFORMER "Corelli"
    INDEX 00 47:48:57
    INDEX 01 47:49:72
  TRACK 18 AUDIO
    TITLE "Concerto Grosso Op 6 № 3 c-moll – I. Largo. Allegro"
    PERFORMER "Corelli"
    INDEX 00 49:59:37
    INDEX 01 50:06:22
  TRACK 19 AUDIO
    TITLE "Concerto Grosso Op 6 № 3 c-moll – II. Grave. Vivace"
    PERFORMER "Corelli"
    INDEX 00 55:12:05
    INDEX 01 55:13:32
  TRACK 20 AUDIO
    TITLE "Concerto Grosso Op 6 № 3 c-moll – III. Allegro"
    PERFORMER "Corelli"
    INDEX 00 59:24:67
    INDEX 01 59:26:27
  TRACK 21 AUDIO
    TITLE "Concerto Grosso Op 6 № 7 D-Dur – I. Vivace. Allegro. Adagio"
    PERFORMER "Corelli"
    INDEX 00 61:52:32
    INDEX 01 61:58:32
  TRACK 22 AUDIO
    TITLE "Concerto Grosso Op 6 № 7 D-Dur – II. Allegro"
    PERFORMER "Corelli"
    INDEX 00 64:53:35
    INDEX 01 64:54:50
  TRACK 23 AUDIO
    TITLE "Concerto Grosso Op 6 № 7 D-Dur – III. Andante largo. Allegro"
    PERFORMER "Corelli"
    INDEX 00 67:01:57
    INDEX 01 67:03:02
  TRACK 24 AUDIO
    TITLE "Concerto Grosso Op 6 № 7 D-Dur – IV. Vivace"
    PERFORMER "Corelli"
    INDEX 00 71:17:42
    INDEX 01 71:18:42
-CD2 – 01h07'18"
Concerto Grosso Op 6 № 8 g-moll
01. I. Vivace. Grave [00h01'44"]
02. II. Allegro [00h02'17"]
03. III. Adagio. Allegro. Adagio [00h04'17"]
04. IV. Vivace [00h01'21"]
05. V. Allegro. Largo [00h06'57"]
Concerto Grosso Op 6 № 11 B-Dur
06. I. Andante Largo (Preludio) [00h02'04"]
07. II. Allegro (Allemanda) [00h02'18"]
08. III. Adagio. Andante largo. Largo (Sarabanda) [00h04'12"]
09. IV. Vivace. (Giga) [00h01'37"]
Concerto Grosso Op 6 № 12 F-Dur
10. I. Adagio (Preludio) [00h02'48"]
11. II. Allegro [00h02'21"]
12. III. Adagio. Vivace (Sarabanda) [00h03'35"]
13. IV. Allegro (Giga) [00h03'07"]
Baldassare Galuppi
Concerto a quatro № 2
14. I. Andantе Allegro [00h02'36"]
15. II. Andante [00h02'23"]
16. III. Allegro assai [00h01'12"]
Giuseppe Tartini
Symphony A-Dur
17. I. Allegro assai [00h04'27"]
18. II. Andante assai [00h05'10"]
19. III. Menuet. Allegro assai [00h02'35"]
Slovak Chamber Orchestra, cond. Bohdan Warchal
Giuseppe Torelli
2 Violins & String Orchestra Concerto Op 8/1 C-Dur
20. I. Vivace [00h03'04"]
21. II. Largo – Allegro ma non troppo [00h04'28"]
22. III. Allegro [00h02'43"]
Slovak Chamber Orchestra, cond. Bohdan Warchal, 1st Violin – Bohdan Warchal, 2nd Violin – Josef Kopelman-

EAC log

Exact Audio Copy V0.99 prebeta 5 from 4. May 2009
EAC extraction logfile from 12. September 2014, 20:49
Various / Great Masters of the Italian Baroque
Used drive  : PIONEER DVD-RW  DVR-111D   Adapter: 1  ID: 0
Read mode               : Secure
Utilize accurate stream : Yes
Defeat audio cache      : Yes
Make use of C2 pointers : No
Read offset correction                      : 48
Overread into Lead-In and Lead-Out          : No
Fill up missing offset samples with silence : Yes
Delete leading and trailing silent blocks   : No
Null samples used in CRC calculations       : Yes
Used interface                              : Installed external ASPI interface
Used output format              : Monkey's Audio Lossless Encoder
Selected bitrate                : Normal Lossless Compression
Quality                         : High
Add ID3 tag                     : No
Command line compressor         : C:\Program Files\Monkey's Audio\MAC.exe
TOC of the extracted CD
     Track |   Start  |  Length  | Start sector | End sector
    ---------------------------------------------------------
        1  |  0:00.32 |  1:43.63 |        32    |     7819
        2  |  1:44.20 |  2:17.02 |      7820    |    18096
        3  |  4:01.22 |  4:17.10 |     18097    |    37381
        4  |  8:18.32 |  1:20.50 |     37382    |    43431
        5  |  9:39.07 |  6:57.28 |     43432    |    74734
        6  | 16:36.35 |  2:04.10 |     74735    |    84044
        7  | 18:40.45 |  2:17.47 |     84045    |    94366
        8  | 20:58.17 |  4:12.10 |     94367    |   113276
        9  | 25:10.27 |  1:37.23 |    113277    |   120574
       10  | 26:47.50 |  2:48.07 |    120575    |   133181
       11  | 29:35.57 |  2:20.40 |    133182    |   143721
       12  | 31:56.22 |  3:35.25 |    143722    |   159871
       13  | 35:31.47 |  3:07.03 |    159872    |   173899
       14  | 38:38.50 |  2:36.20 |    173900    |   185619
       15  | 41:14.70 |  2:23.35 |    185620    |   196379
       16  | 43:38.30 |  1:12.07 |    196380    |   201786
       17  | 44:50.37 |  4:26.45 |    201787    |   221781
       18  | 49:17.07 |  5:10.35 |    221782    |   245066
       19  | 54:27.42 |  2:35.25 |    245067    |   256716
       20  | 57:02.67 |  3:03.73 |    256717    |   270514
       21  | 60:06.65 |  4:28.27 |    270515    |   290641
       22  | 64:35.17 |  2:43.00 |    290642    |   302866
Range status and errors
Selected range
     Filename D:\Музыка lossless\Great Masters of the Italian Baroque\CD2\Various - Great Masters of the Italian Baroque.wav
     Peak level 100.0 %
     Range quality 99.9 %
     Test CRC 9FBCF78E
     Copy CRC 9FBCF78E
     Copy OK
No errors occurred
AccurateRip summary
Track  1  cannot be verified as accurate (confidence 3)  [C4EE8AF2], AccurateRip returned [91C1B167]
Track  2  cannot be verified as accurate (confidence 3)  [B1BA35E9], AccurateRip returned [A379A30C]
Track  3  cannot be verified as accurate (confidence 3)  [4C1C66A0], AccurateRip returned [36BDBEB0]
Track  4  cannot be verified as accurate (confidence 3)  [28B13253], AccurateRip returned [B0CA614D]
Track  5  cannot be verified as accurate (confidence 3)  [2C5F764F], AccurateRip returned [F7C3646B]
Track  6  cannot be verified as accurate (confidence 3)  [DDB762EC], AccurateRip returned [51447829]
Track  7  cannot be verified as accurate (confidence 3)  [91680832], AccurateRip returned [5DEEBFD3]
Track  8  cannot be verified as accurate (confidence 3)  [F763F19B], AccurateRip returned [B2B9BF70]
Track  9  cannot be verified as accurate (confidence 3)  [C5786932], AccurateRip returned [57C15C46]
Track 10  cannot be verified as accurate (confidence 3)  [697055C1], AccurateRip returned [AD7299D8]
Track 11  cannot be verified as accurate (confidence 3)  [D5C2ADC1], AccurateRip returned [71AE25E5]
Track 12  cannot be verified as accurate (confidence 3)  [ECFA158D], AccurateRip returned [0FC7443E]
Track 13  cannot be verified as accurate (confidence 3)  [90C30877], AccurateRip returned [F6D61302]
Track 14  cannot be verified as accurate (confidence 3)  [E3DC8ACB], AccurateRip returned [8C25A525]
Track 15  cannot be verified as accurate (confidence 3)  [CAE4D7E5], AccurateRip returned [686E4CCC]
Track 16  cannot be verified as accurate (confidence 3)  [F4DA8FD7], AccurateRip returned [5B2006B4]
Track 17  cannot be verified as accurate (confidence 3)  [9D871F2F], AccurateRip returned [D3895A7C]
Track 18  cannot be verified as accurate (confidence 3)  [2BD75D88], AccurateRip returned [C5BBD969]
Track 19  cannot be verified as accurate (confidence 3)  [6DA2249E], AccurateRip returned [93FD2172]
Track 20  cannot be verified as accurate (confidence 3)  [5FB401C3], AccurateRip returned [F1676CB5]
Track 21  cannot be verified as accurate (confidence 3)  [A0FD3AB3], AccurateRip returned [CAB89A49]
Track 22  cannot be verified as accurate (confidence 3)  [4590A2EF], AccurateRip returned [7CE12370]
No tracks could be verified as accurate
You may have a different pressing from the one(s) in the database
End of status report

-

CUE

REM GENRE Classical
REM DATE 1995
REM DISCID 350FC616
REM COMMENT "ExactAudioCopy v0.99pb5"
PERFORMER "Various"
TITLE "Great Masters of the Italian Baroque"
FILE "Various - Great Masters of the Italian Baroque.ape" WAVE
  TRACK 01 AUDIO
    TITLE "Concerto Grosso Op 6 № 8 g-moll – I. Vivace. Grave"
    PERFORMER "Corelli"
    INDEX 00 00:00:00
    INDEX 01 00:00:32
  TRACK 02 AUDIO
    TITLE "Concerto Grosso Op 6 № 8 g-moll – II. Allegro"
    PERFORMER "Corelli"
    INDEX 01 01:44:20
  TRACK 03 AUDIO
    TITLE "Concerto Grosso Op 6 № 8 g-moll – III. Adagio. Allegro. Adagio"
    PERFORMER "Corelli"
    INDEX 01 04:01:22
  TRACK 04 AUDIO
    TITLE "Concerto Grosso Op 6 № 8 g-moll – IV. Vivace"
    PERFORMER "Corelli"
    INDEX 01 08:18:32
  TRACK 05 AUDIO
    TITLE "Concerto Grosso Op 6 № 8 g-moll – V. Allegro. Largo"
    PERFORMER "Corelli"
    INDEX 01 09:39:07
  TRACK 06 AUDIO
    TITLE "Concerto Grosso Op 6 № 11 B-Dur – I. Andante Largo (Preludio)"
    PERFORMER "Corelli"
    INDEX 00 16:30:20
    INDEX 01 16:36:35
  TRACK 07 AUDIO
    TITLE "Concerto Grosso Op 6 № 11 B-Dur – II. Allegro (Allemanda)"
    PERFORMER "Corelli"
    INDEX 01 18:40:45
  TRACK 08 AUDIO
    TITLE "Concerto Grosso Op 6 № 11 B-Dur – III. Adagio. Andante largo. Largo (Sarabanda)"
    PERFORMER "Corelli"
    INDEX 01 20:58:17
  TRACK 09 AUDIO
    TITLE "Concerto Grosso Op 6 № 11 B-Dur – IV. Vivace. (Giga)"
    PERFORMER "Corelli"
    INDEX 01 25:10:27
  TRACK 10 AUDIO
    TITLE "Concerto Grosso Op 6 № 12 F-Dur – I. Adagio (Preludio)"
    PERFORMER "Corelli"
    INDEX 00 26:43:27
    INDEX 01 26:47:50
  TRACK 11 AUDIO
    TITLE "Concerto Grosso Op 6 № 12 F-Dur – II. Allegro"
    PERFORMER "Corelli"
    INDEX 01 29:35:57
  TRACK 12 AUDIO
    TITLE "Concerto Grosso Op 6 № 12 F-Dur – III. Adagio. Vivace (Sarabanda)"
    PERFORMER "Corelli"
    INDEX 01 31:56:22
  TRACK 13 AUDIO
    TITLE "Concerto Grosso Op 6 № 12 F-Dur – IV. Allegro (Giga)"
    PERFORMER "Corelli"
    INDEX 01 35:31:47
  TRACK 14 AUDIO
    TITLE "Concerto a quatro № 2 – I. Andantе Allegro"
    PERFORMER "Galuppi"
    INDEX 00 38:35:07
    INDEX 01 38:38:50
  TRACK 15 AUDIO
    TITLE "Concerto a quatro № 2 – II. Andante"
    PERFORMER "Galuppi"
    INDEX 01 41:14:70
  TRACK 16 AUDIO
    TITLE "Concerto a quatro № 2 – III. Allegro assai"
    PERFORMER "Galuppi"
    INDEX 01 43:38:30
  TRACK 17 AUDIO
    TITLE "Symphony A-Dur – I. Allegro assai"
    PERFORMER "Tartini"
    INDEX 00 44:47:20
    INDEX 01 44:50:37
  TRACK 18 AUDIO
    TITLE "Symphony A-Dur – II. Andante assai"
    PERFORMER "Tartini"
    INDEX 01 49:17:07
  TRACK 19 AUDIO
    TITLE "Symphony A-Dur – III. Menuet. Allegro assai"
    PERFORMER "Tartini"
    INDEX 01 54:27:42
  TRACK 20 AUDIO
    TITLE "2 Violins & String Orchestra Concerto Op 8/1 C-Dur – I. Vivace"
    PERFORMER "Tartini"
    INDEX 00 56:58:55
    INDEX 01 57:02:67
  TRACK 21 AUDIO
    TITLE "2 Violins & String Orchestra Concerto Op 8/1 C-Dur – II. Largo – Allegro ma non troppo"
    PERFORMER "Tartini"
    INDEX 01 60:06:65
  TRACK 22 AUDIO
    TITLE "2 Violins & String Orchestra Concerto Op 8/1 C-Dur – III. Allegro"
    PERFORMER "Tartini"
    INDEX 01 64:35:17

-
-



Показать сообщения:    

Текущее время: 08-Дек 19:05

Часовой пояс: UTC + 3


Вы не можете начинать темы
Вы не можете отвечать на сообщения
Вы не можете редактировать свои сообщения
Вы не можете удалять свои сообщения
Вы не можете голосовать в опросах
Вы не можете прикреплять файлы к сообщениям
Вы не можете скачивать файлы