(Classical) Franz Liszt — Hungarian Rhapsodies № 1, 2, 3, 5 & 6 (Joseph Bulva; Alfred Scholz) — 2009, APE (image+.cue) lossless


 

[Цитировать]

Hungarian Rhapsodies № 1, 2, 3, 5 & 6- Жанр: Classical
Страна-производитель диска: Германия
Год издания диска: 2009
Издатель (лейбл): ZYX Classic
Номер по каталогу: CLS 4162
CATALOG: 090204018758
Композитор: Franz Liszt
Аудио кодек: ape
Тип рипа: image+.cue
Битрейт аудио: lossless
Продолжительность: 00h56'36"
Источник: собственный рип
Наличие сканов в содержимом раздачи: да-Треклист:
Hungarian Rhapsodies S. 244
01. Hungarian Rhapsody № 1 S. 244 № 1 E-Dur / in E Major [00h11'54"]
02. Hungarian Rhapsody № 2 S. 244 № 2 cis-moll / in C-sharp minor [00h09'23"]
03. Hungarian Rhapsody № 3 S. 244 № 3 B-Dur / in B-flat Major [00h08'26"]
04. Hungarian Rhapsody № 5 S. 244 № 5 e-moll / in E minor [00h12'58"]
05. Hungarian Rhapsody № 6 S. 244 № 6 Des-Dur / in D-flat Major [00h13'55"]
London Festival Orchestra, cond. Alfred Scholz, Piano – Joseph Bulva
-

EAC log

Exact Audio Copy V0.99 prebeta 5 from 4. May 2009
Отчёт EAC об извлечении, выполненном 5. сентября 2014, 21:50
Liszt, Franz / Ungrische Rhapsodien
Дисковод: PIONEER DVD-RW  DVR-111D   Adapter: 1  ID: 0
Режим чтения                 : Достоверность
Использование точного потока : Да
Отключение кэша аудио        : Да
Использование указателей C2  : Нет
Коррекция смещения при чтении                     : 48
Способность читать области Lead-in и Lead-out     : Нет
Заполнение пропущенных сэмплов тишиной            : Да
Удаление блоков с тишиной в начале и конце        : Нет
При вычислениях CRC использовались нулевые сэмплы : Да
Интерфейс                                         : Установленный внешний ASPI-интерфейс
Выходной формат          : Monkey's Audio (без потерь)
Выбранный битрейт        : Normal Lossless Compression
Качество                 : Высокий
Добавление ID3-тэга      : Нет
Утилита сжатия           : C:\Program Files\Monkey's Audio\MAC.exe
TOC извлечённого CD
     Трек |   Старт  | Длительность | Начальный сектор | Конечный сектор
    ---------------------------------------------------------------------
       1  |  0:00.00 |   11:54.30   |           0      |      53579
       2  | 11:54.30 |    9:23.25   |       53580      |      95829
       3  | 21:17.55 |    8:26.25   |       95830      |     133804
       4  | 29:44.05 |   12:57.50   |      133805      |     192129
       5  | 42:41.55 |   13:54.42   |      192130      |     254721
Характеристики диапазона извлечения и сообщения об ошибках
Выбранный диапазон
     Имя файла D:\Музыка lossless\Liszt, Franz - Ungrische Rhapsodien.wav
     Пиковый уровень 99.9 %
     Качество диапазона 100.0 %
     CRC теста 6E764B5E
     CRC копии 6E764B5E
     Копирование... OK
Ошибок не произошло
AccurateRip: сводка
Трек  1  точность не определена (достоверность 5)  [2B123FA4], AccurateRip вернул [15E3BDBE]
Трек  2  точность не определена (достоверность 5)  [305AAEEC], AccurateRip вернул [529757C0]
Трек  3  точность не определена (достоверность 5)  [F6456378], AccurateRip вернул [404B795A]
Трек  4  точность не определена (достоверность 5)  [88FB287B], AccurateRip вернул [9FB4F4D9]
Трек  5  точность не определена (достоверность 5)  [490295F4], AccurateRip вернул [15F2A1C6]
Ни один трек не прошёл проверки на точность
В вашей базе может быть иной вариант штамповки диска
Конец отчёта

-

CUE

REM GENRE Classical
REM DATE 2009
REM DISCID 490D4405
REM COMMENT "ExactAudioCopy v0.99pb5"
PERFORMER "Liszt"
TITLE "Ungrische Rhapsodien Bulva Scholz"
FILE "Liszt - Ungrische Rhapsodien Bulva Scholz.ape" WAVE
  TRACK 01 AUDIO
    TITLE "Ungarische Rhapsodie № 1 S. 244/1 E-Dur"
    PERFORMER "Liszt"
    INDEX 01 00:00:00
  TRACK 02 AUDIO
    TITLE "Ungarische Rhapsodie № 2 S. 244/2 cis-moll"
    PERFORMER "Liszt"
    INDEX 00 11:53:52
    INDEX 01 11:54:30
  TRACK 03 AUDIO
    TITLE "Ungarische Rhapsodie № 3 S. 244/3 B-Dur"
    PERFORMER "Liszt"
    INDEX 00 21:15:12
    INDEX 01 21:17:55
  TRACK 04 AUDIO
    TITLE "Ungarische Rhapsodie Nr. 5 S. 244/5 e-moll"
    PERFORMER "Liszt"
    INDEX 00 29:41:25
    INDEX 01 29:44:05
  TRACK 05 AUDIO
    TITLE "Ungarische Rhapsodie № 6 S. 244/6 Des-Dur"
    PERFORMER "Liszt"
    INDEX 00 42:34:30
    INDEX 01 42:41:55
-



Показать сообщения:    

Текущее время: 02-Дек 23:11

Часовой пояс: UTC + 3


Вы не можете начинать темы
Вы не можете отвечать на сообщения
Вы не можете редактировать свои сообщения
Вы не можете удалять свои сообщения
Вы не можете голосовать в опросах
Вы не можете прикреплять файлы к сообщениям
Вы не можете скачивать файлы