(Classical) Петр Чайковский - Франческа да Римини; Ромео и Джульетта; 1812 год - Orchestra dell' Accademia Nazionale di Santa Cecilia, Antonio Pappano - 2006, FLAC (image+.cue) lossless


 

[Цитировать]

Петр Чайковский - Франческа да Римини; Ромео и Джульетта; 1812 год - Orchestra dell' Accademia Nazionale di Santa Cecilia, Antonio Pappano
Жанр: Classical
Страна-производитель диска: UK
Год издания диска: 2006
Издатель (лейбл): EMI
Дата записи: 2005, 2006
Аудиокодек: FLAC
Тип рипа: image+.cue
Битрейт аудио: lossless
Продолжительность: 71:13
Источник: собственный рип
Наличие сканов в содержимом раздачи: да
Треклист:
Петр Ильич Чайковский (1840-1893)
[1] «Франческа да Римини», симфоническая фантазия по Данте, Op.32
[2] «Ромео и Джульетта», увертюра-фантазия (версия 1880 года)
[3]-[4] «Евгений Онегин»: Вальс* и Полонез
[5] «1812 год», торжественная увертюра, Op.49*†
Исполнители:
* Coro dell' Accademia Nazionale di Santa Cecilia
Banda Musicale della Polizia di Stato
Orchestra dell' Accademia Nazionale di Santa Cecilia
Antonio Pappano

Лог создания рипа

Exact Audio Copy V1.0 beta 3 from 29. August 2011
EAC extraction logfile from 13. July 2014, 16:42
Orchestra dell' Accademia Nazionale di Santa Cecilia, Antonio Pappano / Tchaikovsky - Overtures & Fantasies
Used drive : HL-DT-STDVDRAM GSA-4083N Adapter: 1 ID: 0
Read mode : SecureUtilize accurate stream : YesDefeat audio cache : YesMake use of C2 pointers : No
Read offset correction : 667Overread into Lead-In and Lead-Out : NoFill up missing offset samples with silence : YesDelete leading and trailing silent blocks : NoNull samples used in CRC calculations : YesUsed interface : Native Win32 interface for Win NT & 2000
Used output format : User Defined EncoderSelected bitrate : 896 kBit/sQuality : HighAdd ID3 tag : NoCommand line compressor : C:\Program Files\Exact Audio Copy\Flac\flac.exeAdditional command line options : -V -8 %source%
TOC of the extracted CD
Track | Start | Length | Start sector | End sector --------------------------------------------------------- 1 | 0:00.00 | 23:26.00 | 0 | 105449 2 | 23:26.00 | 20:14.33 | 105450 | 196532 3 | 43:40.33 | 6:11.14 | 196533 | 224371 4 | 49:51.47 | 4:51.03 | 224372 | 246199 5 | 54:42.50 | 16:30.61 | 246200 | 320510
Range status and errors
Selected range
Filename J:\New Music\Tchaikovsky - Overtures & Fantasies - Pappano\Tchaikovsky - Overtures & Fantasies.wav
Peak level 100.0 % Extraction speed 3.6 X Range quality 100.0 % Test CRC 2540C83B Copy CRC 2540C83B Copy OK
No errors occurred
AccurateRip summary
Track 1 accurately ripped (confidence 5) [690351B3] (AR v2)Track 2 accurately ripped (confidence 5) [DCCEFC4E] (AR v2)Track 3 accurately ripped (confidence 5) [6A7CF55F] (AR v2)Track 4 accurately ripped (confidence 5) [507A57F3] (AR v2)Track 5 accurately ripped (confidence 5) [6318AB46] (AR v2)
All tracks accurately ripped
End of status report
==== Log checksum 4884C3B012823821F764D2E94F128F476ADD51A2D75C66CF995BA1421F1BA58E ====



Показать сообщения:    

Текущее время: 09-Дек 10:49

Часовой пояс: UTC + 3


Вы не можете начинать темы
Вы не можете отвечать на сообщения
Вы не можете редактировать свои сообщения
Вы не можете удалять свои сообщения
Вы не можете голосовать в опросах
Вы не можете прикреплять файлы к сообщениям
Вы не можете скачивать файлы