(Orchestral) Anton Bruckner - Symphonie Nr.9 (Wiener Symphoniker - Lovro von Matacic) - 1996, FLAC (image+.cue) lossless


 

[Цитировать]

Anton Bruckner
Symphonie Nr.IX, d-moll

Wiener Symphoniker
Dirigent: Lovro von Matačić

-
-- Жанр: Orchestral
Страна-производитель диска: Japan
Год издания диска: 1996
Издатель (лейбл): Amadeo
Дата записи: 12-13.03.1983
Аудиокодек: FLAC
Тип рипа: image+.cue
Битрейт аудио: lossless
Продолжительность: 59'34''
Источник: собственный рип
Наличие сканов в содержимом раздачи: да
Треклист:
A.Bruckner - Symphonie Nr.9
[1] I. Feierlich. Misterioso
[2] II. Scherzo. Bewegt, lebhaft
[3] III. Adagio. Langsam feierlich
Исполнители:
Wiener Symphoniker - Lovro von Matačić
-

Лог создания рипа

Exact Audio Copy V1.0 beta 3 from 29. August 2011
EAC extraction logfile from 4. May 2014, 18:48
Wiener Symphoniker - Lovro von Matačić / Bruckner - Symphonie Nr.9
Used drive : COMPAQ CD-ROM LTN403 Adapter: 0 ID: 0
Read mode : SecureUtilize accurate stream : YesDefeat audio cache : YesMake use of C2 pointers : No
Read offset correction : -1164Overread into Lead-In and Lead-Out : NoFill up missing offset samples with silence : YesDelete leading and trailing silent blocks : NoNull samples used in CRC calculations : YesUsed interface : Native Win32 interface for Win NT & 2000
Used output format : User Defined EncoderSelected bitrate : 1024 kBit/sQuality : HighAdd ID3 tag : NoCommand line compressor : C:\Program Files\FLAC\flac.exeAdditional command line options : -T"COMMENT=rip by el coronel" -8 -V %source%
TOC of the extracted CD
Track | Start | Length | Start sector | End sector --------------------------------------------------------- 1 | 0:00.00 | 24:28.45 | 0 | 110144 2 | 24:28.45 | 10:16.30 | 110145 | 156374 3 | 34:45.00 | 24:49.00 | 156375 | 268049
Range status and errors
Selected range
Filename D:\Bruckner - Symphonie Nr.9 (WS - Matacic).wav
Peak level 99.9 % Extraction speed 3.0 X Range quality 99.9 % Test CRC 54629E12 Copy CRC 54629E12 Copy OK
No errors occurred
End of status report
==== Log checksum A23AE0AA8F40B0A909AF687A6C6B3EBF861D01889AC834DB8C16F8D3A6F5864B ====

Содержание индексной карты (.CUE)

REM GENRE ClassicalREM DATE 1996REM DISCID 1F0DF603REM COMMENT "ExactAudioCopy v1.0b3"PERFORMER "Wiener Symphoniker - Lovro von Matacic"TITLE "Bruckner - Symphonie Nr.9"FILE "Bruckner - Symphonie Nr.9 (WS - Matacic).flac" WAVE TRACK 01 AUDIO TITLE "I. Feierlich. Misterioso" PERFORMER "Wiener Symphoniker - Lovro von Matacic" INDEX 01 00:00:00 TRACK 02 AUDIO TITLE "II. Scherzo. Bewegt, lebhaft" PERFORMER "Wiener Symphoniker - Lovro von Matacic" INDEX 01 24:28:45 TRACK 03 AUDIO TITLE "III. Adagio. Langsam feierlich" PERFORMER "Wiener Symphoniker - Lovro von Matacic" INDEX 00 34:44:73 INDEX 01 34:45:00



Показать сообщения:    

Текущее время: 21-Янв 11:38

Часовой пояс: UTC + 3


Вы не можете начинать темы
Вы не можете отвечать на сообщения
Вы не можете редактировать свои сообщения
Вы не можете удалять свои сообщения
Вы не можете голосовать в опросах
Вы не можете прикреплять файлы к сообщениям
Вы не можете скачивать файлы