(Classical) Жорж Бизе – Симфония, «Рим» / Bizet – Symphony & «Roma» (Дударова, Мансуров / Doudarova, Mansurov) - 1987?, FLAC (image+.cue) lossless


 

[Цитировать]

Жорж Бизе – Симфония, «Рим» / Bizet – Symphony & «Roma» (Дударова, Мансуров / Doudarova, Mansurov)
Жанр: Classical
Страна-производитель диска: ФРГ
Год издания диска: 1987?
Издатель (лейбл): Le Chant du Monde, Melodia / Мелодия
Номер по каталогу: LDC 278844; CM 201
Дата записи: 1978 (1 — 4); 1982 (5 — 8), Москва.
Аудиокодек: FLAC
Тип рипа: image+.cue
Битрейт аудио: lossless
Продолжительность: 01:13:39
Источник: odeonmusic
Наличие сканов в содержимом раздачи: да
Треклист:
Александр Сезар Леопольд (Жорж) Бизе (1838 — 1875).
«Рим», симфония [№ 3] / концертная сюита [№ 3] C-dur, WD 37 (1860 — 1868; 1871).
01. I. Andante tranquillo. — Allegro agitato ma non troppo presto. — Tempo I. Andante [14:02].
02. II. Allegro vivace [05:34].
03. III. Andante molto [09:48].
04. IV. Allegro vivacissimo [06:36].
Симфония [№ 1] C-dur, WD 33 (1855).
05. I. Allegro vivo [09:35].
06. II. Adagio [13:25].
07. III. Allegro vivace. — Trio. — Da capo il Menuetto [06:10].
08. IV. Allegro vivace [08:29].
Исполнители:
«Рим».
Большой симфонический оркестр Всесоюзного радио и Центрального телевидения.
Дирижер Фуат Мансуров.
Симфония.
Московский государственный [академический] симфонический оркестр [(МГАСО)].
Дирижер Вероника Дударова.

Лог создания рипа

Exact Audio Copy V1.0 beta 3 from 29. August 2011
EAC extraction logfile from 22. February 2012, 12:34
- / Bizet - Roma, Symphonie - Mansourian, Doudarova
Used drive : HL-DT-STDVDRAM GSA-H10A Adapter: 0 ID: 0
Read mode : SecureUtilize accurate stream : YesDefeat audio cache : YesMake use of C2 pointers : No
Read offset correction : 667Overread into Lead-In and Lead-Out : NoFill up missing offset samples with silence : YesDelete leading and trailing silent blocks : NoNull samples used in CRC calculations : YesUsed interface : Native Win32 interface for Win NT & 2000
Used output format : User Defined EncoderSelected bitrate : 1024 kBit/sQuality : HighAdd ID3 tag : NoCommand line compressor : C:\Program Files\Exact Audio Copy\Flac\flac.exeAdditional command line options : -8 -V -T "TITLE=%title%" -T "ARTIST=%artist%" -T "ALBUMARTIST=%albumartist%" -T "ALBUM=%albumtitle%" -T "DATE=%year%" -T "TRACKNUMBER=%tracknr%" -T "TRACKTOTAL=%numtracks%" -T "GENRE=%genre%" -T "COMMENT=%comment%" -T "PERFORMER=%albuminterpret%" -T "COMPOSER=%composer%" %source% -o %dest%
TOC of the extracted CD
Track | Start | Length | Start sector | End sector --------------------------------------------------------- 1 | 0:00.00 | 14:05.57 | 0 | 63431 2 | 14:05.57 | 5:38.25 | 63432 | 88806 3 | 19:44.07 | 9:54.30 | 88807 | 133386 4 | 29:38.37 | 6:46.58 | 133387 | 163894 5 | 36:25.20 | 9:30.12 | 163895 | 206656 6 | 45:55.32 | 13:19.55 | 206657 | 266636 7 | 59:15.12 | 6:10.03 | 266637 | 294389 8 | 65:25.15 | 8:22.25 | 294390 | 332064
Range status and errors
Selected range
Filename F:\Ripped general\[0278] Bizet - Roma, Symphonie - Mansourian, Doudarova\Bizet - Roma, Symphonie - Mansourian, Doudarova.wav
Peak level 84.8 % Extraction speed 7.7 X Range quality 100.0 % Test CRC 60476B31 Copy CRC 60476B31 Copy OK
No errors occurred
AccurateRip summary
Track 1 not present in databaseTrack 2 not present in databaseTrack 3 not present in databaseTrack 4 not present in databaseTrack 5 not present in databaseTrack 6 not present in databaseTrack 7 not present in databaseTrack 8 not present in database
None of the tracks are present in the AccurateRip database
End of status report

Содержание индексной карты (.CUE)

REM GENRE ClassicalREM DISCID 85114B08REM COMMENT "ExactAudioCopy v1.0b3"PERFORMER "Veronica Doudarova & Fouat Mansourian"TITLE "Bizet – Symphony & «Roma» – Doudarova & Mansourian"FILE "Bizet – Symphony & «Roma» – Doudarova & Mansourian.flac" WAVE TRACK 01 AUDIO TITLE "Roma, Symphony in C major (1860 - 1868) - I. Andante tranquillo - Allegro agitato ma non troppo presto - Andante" PERFORMER "Fouat Mansourian" INDEX 01 00:00:00 TRACK 02 AUDIO TITLE "Roma, Symphony in C major (1860 - 1868) - II. Allegro vivace" PERFORMER "Fouat Mansourian" INDEX 00 14:01:12 INDEX 01 14:05:57 TRACK 03 AUDIO TITLE "Roma, Symphony in C major (1860 - 1868) - III. Andante molto" PERFORMER "Fouat Mansourian" INDEX 00 19:40:37 INDEX 01 19:44:07 TRACK 04 AUDIO TITLE "Roma, Symphony in C major (1860 - 1868) - IV. Allegro vivacissimo (Carnaval)" PERFORMER "Fouat Mansourian" INDEX 00 29:33:42 INDEX 01 29:38:37 TRACK 05 AUDIO TITLE "Symphony in C major (1855) - I. Allegro vivo" PERFORMER "Veronica Doudarova" INDEX 00 36:15:20 INDEX 01 36:25:20 TRACK 06 AUDIO TITLE "Symphony in C major (1855) - II. Adagio" PERFORMER "Veronica Doudarova" INDEX 00 45:52:47 INDEX 01 45:55:32 TRACK 07 AUDIO TITLE "Symphony in C major (1855) - III. Allegro vivace" PERFORMER "Veronica Doudarova" INDEX 00 59:09:47 INDEX 01 59:15:12 TRACK 08 AUDIO TITLE "Symphony in C major (1855) - IV. Finale. Allegro vivace" PERFORMER "Veronica Doudarova" INDEX 00 65:21:25 INDEX 01 65:25:15
-В буклете перепутана фамилия дирижера: вместо Мансуров напечатано Мансурян (вероятно, в результате смешения с армянским композитором Тиграном Мансуряном).



Показать сообщения:    

Текущее время: 05-Дек 21:40

Часовой пояс: UTC + 3


Вы не можете начинать темы
Вы не можете отвечать на сообщения
Вы не можете редактировать свои сообщения
Вы не можете удалять свои сообщения
Вы не можете голосовать в опросах
Вы не можете прикреплять файлы к сообщениям
Вы не можете скачивать файлы