(Classical) Anton Bruckner - Symphony No.8 - London Philharmonic Orchestra, Klaus Tennstedt - 2008, FLAC (image+.cue) lossless


 

[Цитировать]

Anton Bruckner - Symphony No.8 - London Philharmonic Orchestra, Klaus Tennstedt
Жанр: Classical
Страна-производитель диска: UK
Год издания диска: 2008
Издатель (лейбл): London Philharmonic Orchestra
Номер по каталогу: LPO-0032
Дата записи: 1981
Аудиокодек: FLAC
Тип рипа: image+.cue
Битрейт аудио: lossless
Продолжительность: 73:51
Источник: собственный рип
Наличие сканов в содержимом раздачи: да
Треклист:
Anton Bruckner (1824-1896)
[1]-[4] Symphony No.8 in C minor (Nowak Edition, 1890)
Исполнители:
London Philharmonic Orchestra
Klaus Tennstedt
conductor

Лог создания рипа

Exact Audio Copy V1.0 beta 3 from 29. August 2011
EAC extraction logfile from 15. July 2014, 11:02
London Philharmonic Orchestra, Klaus Tennstedt / Bruckner - Symphony No.8
Used drive : HL-DT-STDVDRRW GWA-4164B Adapter: 5 ID: 0
Read mode : SecureUtilize accurate stream : YesDefeat audio cache : YesMake use of C2 pointers : No
Read offset correction : 102Overread into Lead-In and Lead-Out : NoFill up missing offset samples with silence : YesDelete leading and trailing silent blocks : NoNull samples used in CRC calculations : YesUsed interface : Native Win32 interface for Win NT & 2000
Used output format : User Defined EncoderSelected bitrate : 896 kBit/sQuality : HighAdd ID3 tag : NoCommand line compressor : C:\Program Files\Exact Audio Copy\FLAC\FLAC.EXEAdditional command line options : -V -8 %source%
TOC of the extracted CD
Track | Start | Length | Start sector | End sector --------------------------------------------------------- 1 | 0:00.00 | 14:52.11 | 0 | 66910 2 | 14:52.11 | 13:44.08 | 66911 | 128718 3 | 28:36.19 | 25:05.53 | 128719 | 241646 4 | 53:41.72 | 20:32.03 | 241647 | 334049
Range status and errors
Selected range
Filename D:\temp\Music\Bruckner - Symphony No.8 - LPO, Tennstedt\Bruckner - Symphony No.8.wav
Peak level 94.8 % Extraction speed 3.1 X Range quality 100.0 % Test CRC 3AAE94A5 Copy CRC 3AAE94A5 Copy OK
No errors occurred
AccurateRip summary
Track 1 accurately ripped (confidence 2) [FAFB09F6] (AR v2)Track 2 accurately ripped (confidence 2) [144B2A12] (AR v2)Track 3 accurately ripped (confidence 2) [C3E6B55A] (AR v2)Track 4 accurately ripped (confidence 2) [F269E968] (AR v2)
All tracks accurately ripped
End of status report
==== Log checksum 0710F2E657E26D22EE5D7126910EA120FA73CAC4C385BBD8FC2178EC27F3BC76 ====



Показать сообщения:    

Текущее время: 07-Дек 23:19

Часовой пояс: UTC + 3


Вы не можете начинать темы
Вы не можете отвечать на сообщения
Вы не можете редактировать свои сообщения
Вы не можете удалять свои сообщения
Вы не можете голосовать в опросах
Вы не можете прикреплять файлы к сообщениям
Вы не можете скачивать файлы