(Classical) Сергей Рахманинов - Симфония №3; Цыганское каприччио; Вокализ - Royal Liverpool Philharmonic Orchestra, Василий Петренко (Petrenko) - 2012, FLAC (image+.cue) lossless


 

[Цитировать]

Сергей Рахманинов - Симфония №3; Цыганское каприччио; Вокализ - Royal Liverpool Philharmonic Orchestra, Василий Петренко
Жанр: Classical
Страна-производитель диска: UK
Год издания диска: 2012
Издатель (лейбл): EMI
Дата записи: 2009, 2010
Аудиокодек: FLAC
Тип рипа: image+.cue
Битрейт аудио: lossless
Продолжительность: 62:51
Источник: собственный рип
Наличие сканов в содержимом раздачи: да
Треклист:
Сергей Васильевич Рахманинов (1873-1943)
[1] Цыганское каприччио, Op.12
[2] Вокализ, Op.34 No.14
[3]-[5] Симфония №3 ля минор, Op.44
Исполнители:
Royal Liverpool Philharmonic Orchestra
Vasily Petrenko

Лог создания рипа

Exact Audio Copy V1.0 beta 3 from 29. August 2011
EAC extraction logfile from 10. July 2014, 11:48
Royal Liverpool Philharmonic Orchestra, Vasily Petrenko / Rachmaninov - Symphony No.3
Used drive : HL-DT-STDVDRRW GWA-4164B Adapter: 5 ID: 0
Read mode : SecureUtilize accurate stream : YesDefeat audio cache : YesMake use of C2 pointers : No
Read offset correction : 102Overread into Lead-In and Lead-Out : NoFill up missing offset samples with silence : YesDelete leading and trailing silent blocks : NoNull samples used in CRC calculations : YesUsed interface : Native Win32 interface for Win NT & 2000
Used output format : User Defined EncoderSelected bitrate : 896 kBit/sQuality : HighAdd ID3 tag : NoCommand line compressor : C:\Program Files\Exact Audio Copy\FLAC\FLAC.EXEAdditional command line options : -V -8 %source%
TOC of the extracted CD
Track | Start | Length | Start sector | End sector --------------------------------------------------------- 1 | 0:00.00 | 16:14.71 | 0 | 73120 2 | 16:14.71 | 5:54.56 | 73121 | 99726 3 | 22:09.52 | 15:07.13 | 99727 | 167764 4 | 37:16.65 | 11:56.46 | 167765 | 221510 5 | 49:13.36 | 13:37.50 | 221511 | 282835
Range status and errors
Selected range
Filename D:\temp\Music\Rachmaninov - Symphony No.3 - Petrenko\Rachmaninov - Symphony No.3.wav
Peak level 99.4 % Extraction speed 2.8 X Range quality 100.0 % Test CRC 054F5AE2 Copy CRC 054F5AE2 Copy OK
No errors occurred
AccurateRip summary
Track 1 accurately ripped (confidence 4) [E377F759] (AR v2)Track 2 accurately ripped (confidence 4) [0864B0A7] (AR v2)Track 3 accurately ripped (confidence 4) [0E2D0AFB] (AR v2)Track 4 accurately ripped (confidence 4) [B1C4DFC0] (AR v2)Track 5 accurately ripped (confidence 4) [CEA22B1E] (AR v2)
All tracks accurately ripped
End of status report
==== Log checksum 865B9D560428E150B854A16DB84EF7327BA6EBD8ADD767C53569BF3908280F13 ====



Показать сообщения:    

Текущее время: 08-Дек 17:24

Часовой пояс: UTC + 3


Вы не можете начинать темы
Вы не можете отвечать на сообщения
Вы не можете редактировать свои сообщения
Вы не можете удалять свои сообщения
Вы не можете голосовать в опросах
Вы не можете прикреплять файлы к сообщениям
Вы не можете скачивать файлы