(Classical) Georg Friedrich Handel - Concerti grossi, Op.6 - Arte dei Suonatori, Martin Gester - 3CD - 2008, FLAC (image+.cue) lossless


 

[Цитировать]

Georg Friedrich Handel - Concerti grossi, Op.6 - Arte dei Suonatori, Martin Gester
Жанр: Classical
Страна-производитель диска: Sweden
Год издания диска: 2008
Издатель (лейбл): BIS
Номер по каталогу: BIS-SACD-1705/06
Дата записи: 2007
Аудиокодек: FLAC
Тип рипа: image+.cue
Битрейт аудио: lossless
Продолжительность: 163:39
Источник: собственный рип
Наличие сканов в содержимом раздачи: да
Треклист:
Georg Friedrich Handel (1685–1759)
Concerti grossi, Op. 6

CD1

[1]-[5] Concerto grosso No. 1 in G major, HWV 319
[6]-[9] Concerto grosso No. 2 in F major, HWV 320
[10]-[14] Concerto grosso No. 3 in E minor, HWV 321
[15]-[18] Concerto grosso No. 4 in A minor, HWV 322
[19]-[24] Concerto grosso No. 5 in D major, HWV 323

CD2

[1]-[5] Concerto grosso No. 6 in G minor, HWV 324
[6]-[10] Concerto grosso No. 7 in B flat major, HWV 325
[11]-[16] Concerto grosso No. 8 in C minor, HWV 326
[17]-[22] Concerto grosso No. 9 in F major, HWV 327
[23]-[27] Concerto grosso No. 10 in D minor, HWV 328

CD3

[1]-[4] Concerto grosso No. 11 in A major, HWV 329
[5]-[9] Concerto grosso No. 12 in B minor, HWV 330
Исполнители:
Arte dei Suonatori conducted by Martin Gester

Лог создания рипа: CD1

Exact Audio Copy V1.0 beta 3 from 29. August 2011
EAC extraction logfile from 23. August 2014, 20:10
Arte dei Suonatori, Martin Gester / Handel - Concerti grossi Op.6 - CD1
Used drive : HL-DT-STDVDRAM GU70N Adapter: 0 ID: 0
Read mode : SecureUtilize accurate stream : YesDefeat audio cache : YesMake use of C2 pointers : No
Read offset correction : 48Overread into Lead-In and Lead-Out : NoFill up missing offset samples with silence : YesDelete leading and trailing silent blocks : NoNull samples used in CRC calculations : YesUsed interface : Native Win32 interface for Win NT & 2000
Used output format : User Defined EncoderSelected bitrate : 128 kBit/sQuality : HighAdd ID3 tag : NoCommand line compressor : C:\Program Files (x86)\Exact Audio Copy\Flac\flac.exeAdditional command line options : -V -8 -T "Date=%year%" -T "Genre=%genre%" %source%
TOC of the extracted CD
Track | Start | Length | Start sector | End sector --------------------------------------------------------- 1 | 0:00.00 | 1:36.16 | 0 | 7215 2 | 1:36.16 | 1:45.44 | 7216 | 15134 3 | 3:21.60 | 2:28.65 | 15135 | 26299 4 | 5:50.50 | 2:29.16 | 26300 | 37490 5 | 8:19.66 | 3:11.05 | 37491 | 51820 6 | 11:30.71 | 4:19.09 | 51821 | 71254 7 | 15:50.05 | 2:21.10 | 71255 | 81839 8 | 18:11.15 | 2:45.28 | 81840 | 94242 9 | 20:56.43 | 2:38.74 | 94243 | 106166 10 | 23:35.42 | 1:16.53 | 106167 | 111919 11 | 24:52.20 | 1:58.09 | 111920 | 120778 12 | 26:50.29 | 2:27.36 | 120779 | 131839 13 | 29:17.65 | 4:31.07 | 131840 | 152171 14 | 33:48.72 | 1:36.50 | 152172 | 159421 15 | 35:25.47 | 2:59.47 | 159422 | 172893 16 | 38:25.19 | 3:15.20 | 172894 | 187538 17 | 41:40.39 | 2:27.52 | 187539 | 198615 18 | 44:08.16 | 2:59.27 | 198616 | 212067 19 | 47:07.43 | 1:36.70 | 212068 | 219337 20 | 48:44.38 | 2:09.33 | 219338 | 229045 21 | 50:53.71 | 3:24.56 | 229046 | 244401 22 | 54:18.52 | 2:18.54 | 244402 | 254805 23 | 56:37.31 | 2:30.65 | 254806 | 266120 24 | 59:08.21 | 3:23.55 | 266121 | 281400
Range status and errors
Selected range
Filename C:\temp\BIS-SACD-1706-06 - Handel - Concerti grossi Op.6\Handel - Concerti grossi Op.6 - CD1.wav
Peak level 92.2 % Extraction speed 2.2 X Range quality 100.0 % Test CRC 94F0D578 Copy CRC 94F0D578 Copy OK
No errors occurred
AccurateRip summary
Track 1 accurately ripped (confidence 11) [7F589C7F] (AR v2)Track 2 accurately ripped (confidence 11) [5F6B99BA] (AR v2)Track 3 accurately ripped (confidence 11) [6B5BBF94] (AR v2)Track 4 accurately ripped (confidence 11) [81C5EF4B] (AR v2)Track 5 accurately ripped (confidence 11) [61CA7528] (AR v2)Track 6 accurately ripped (confidence 11) [0079D71C] (AR v2)Track 7 accurately ripped (confidence 11) [958C0083] (AR v2)Track 8 accurately ripped (confidence 11) [64520E7F] (AR v2)Track 9 accurately ripped (confidence 11) [CCD87054] (AR v2)Track 10 accurately ripped (confidence 11) [B90F26EC] (AR v2)Track 11 accurately ripped (confidence 11) [38638BCB] (AR v2)Track 12 accurately ripped (confidence 11) [8BB694A4] (AR v2)Track 13 accurately ripped (confidence 11) [8E831569] (AR v2)Track 14 accurately ripped (confidence 11) [289770B1] (AR v2)Track 15 accurately ripped (confidence 11) [13525DC6] (AR v2)Track 16 accurately ripped (confidence 11) [8E482A57] (AR v2)Track 17 accurately ripped (confidence 11) [D62C2CD3] (AR v2)Track 18 accurately ripped (confidence 11) [988B1E5F] (AR v2)Track 19 accurately ripped (confidence 11) [43C21777] (AR v2)Track 20 accurately ripped (confidence 11) [E6D2B370] (AR v2)Track 21 accurately ripped (confidence 11) [E23A26D6] (AR v2)Track 22 accurately ripped (confidence 11) [35F2DF0F] (AR v2)Track 23 accurately ripped (confidence 11) [9D89C691] (AR v2)Track 24 accurately ripped (confidence 11) [DB568FD8] (AR v2)
All tracks accurately ripped
End of status report
==== Log checksum 44CEDC37E40BC303140DF8C78554BCA4ABC68596DB5A9B1178F06601ACC2278E ====

Лог создания рипа: CD2

Exact Audio Copy V1.0 beta 3 from 29. August 2011
EAC extraction logfile from 24. August 2014, 2:05
Arte dei Suonatori, Martin Gester / Handel - Concerti grossi Op.6 - CD2
Used drive : HL-DT-STDVDRAM GU70N Adapter: 0 ID: 0
Read mode : SecureUtilize accurate stream : YesDefeat audio cache : YesMake use of C2 pointers : No
Read offset correction : 48Overread into Lead-In and Lead-Out : NoFill up missing offset samples with silence : YesDelete leading and trailing silent blocks : NoNull samples used in CRC calculations : YesUsed interface : Native Win32 interface for Win NT & 2000
Used output format : User Defined EncoderSelected bitrate : 128 kBit/sQuality : HighAdd ID3 tag : NoCommand line compressor : C:\Program Files (x86)\Exact Audio Copy\Flac\flac.exeAdditional command line options : -V -8 -T "Date=%year%" -T "Genre=%genre%" %source%
TOC of the extracted CD
Track | Start | Length | Start sector | End sector --------------------------------------------------------- 1 | 0:00.00 | 3:20.19 | 0 | 15018 2 | 3:20.19 | 1:42.43 | 15019 | 22711 3 | 5:02.62 | 5:07.55 | 22712 | 45791 4 | 10:10.42 | 3:03.17 | 45792 | 59533 5 | 13:13.59 | 2:17.56 | 59534 | 69864 6 | 15:31.40 | 1:05.59 | 69865 | 74798 7 | 16:37.24 | 2:50.44 | 74799 | 87592 8 | 19:27.68 | 2:56.47 | 87593 | 100839 9 | 22:24.40 | 3:41.67 | 100840 | 117481 10 | 26:06.32 | 3:16.57 | 117482 | 132238 11 | 29:23.14 | 6:27.26 | 132239 | 161289 12 | 35:50.40 | 1:46.58 | 161290 | 169297 13 | 37:37.23 | 1:46.57 | 169298 | 177304 14 | 39:24.05 | 1:09.53 | 177305 | 182532 15 | 40:33.58 | 2:53.66 | 182533 | 195573 16 | 43:27.49 | 1:16.68 | 195574 | 201341 17 | 44:44.42 | 1:33.73 | 201342 | 208389 18 | 46:18.40 | 3:39.63 | 208390 | 224877 19 | 49:58.28 | 2:25.04 | 224878 | 235756 20 | 52:23.32 | 1:56.23 | 235757 | 244479 21 | 54:19.55 | 1:16.37 | 244480 | 250216 22 | 55:36.17 | 1:59.59 | 250217 | 259200 23 | 57:36.01 | 3:48.06 | 259201 | 276306 24 | 61:24.07 | 3:27.71 | 276307 | 291902 25 | 64:52.03 | 2:13.56 | 291903 | 301933 26 | 67:05.59 | 2:44.31 | 301934 | 314264 27 | 69:50.15 | 2:12.61 | 314265 | 324225
Range status and errors
Selected range
Filename C:\temp\BIS-SACD-1706-06 - Handel - Concerti grossi Op.6\Handel - Concerti grossi Op.6 - CD2.wav
Peak level 99.9 % Extraction speed 2.3 X Range quality 99.9 % Test CRC 27863A9D Copy CRC 27863A9D Copy OK
No errors occurred
AccurateRip summary
Track 1 accurately ripped (confidence 7) [C5094BD8] (AR v2)Track 2 accurately ripped (confidence 7) [8655B11F] (AR v2)Track 3 accurately ripped (confidence 7) [5054E4FD] (AR v2)Track 4 accurately ripped (confidence 7) [49F69599] (AR v2)Track 5 accurately ripped (confidence 7) [AC4DEC26] (AR v2)Track 6 accurately ripped (confidence 7) [E95CA834] (AR v2)Track 7 accurately ripped (confidence 7) [9AB7EEB4] (AR v2)Track 8 accurately ripped (confidence 7) [0813AF5C] (AR v2)Track 9 accurately ripped (confidence 7) [FEB12387] (AR v2)Track 10 accurately ripped (confidence 7) [3941CA89] (AR v2)Track 11 accurately ripped (confidence 7) [4A152E7B] (AR v2)Track 12 accurately ripped (confidence 7) [93ED3FE0] (AR v2)Track 13 accurately ripped (confidence 7) [2B4611CE] (AR v2)Track 14 accurately ripped (confidence 7) [D106EC2D] (AR v2)Track 15 accurately ripped (confidence 7) [D58539ED] (AR v2)Track 16 accurately ripped (confidence 7) [B626D5E8] (AR v2)Track 17 accurately ripped (confidence 7) [ABBEDDD2] (AR v2)Track 18 accurately ripped (confidence 7) [1D57DA20] (AR v2)Track 19 accurately ripped (confidence 7) [75FEFA18] (AR v2)Track 20 accurately ripped (confidence 7) [D0FE028A] (AR v2)Track 21 accurately ripped (confidence 7) [11727D04] (AR v2)Track 22 accurately ripped (confidence 7) [46F0C3C5] (AR v2)Track 23 accurately ripped (confidence 7) [7A2910C5] (AR v2)Track 24 accurately ripped (confidence 7) [5A1D0483] (AR v2)Track 25 accurately ripped (confidence 7) [04E9921D] (AR v2)Track 26 accurately ripped (confidence 7) [F4BCD943] (AR v2)Track 27 accurately ripped (confidence 7) [559AEC30] (AR v2)
All tracks accurately ripped
End of status report
==== Log checksum 43785E30F709C7DEF26519AE21F599C5A2A9921010BBA9B93289CD86E709B724 ====

Лог создания рипа: CD3

Exact Audio Copy V1.0 beta 3 from 29. August 2011
EAC extraction logfile from 24. August 2014, 2:41
Arte dei Suonatori, Martin Gester / Handel - Concerti grossi Op.6 - CD3
Used drive : HL-DT-STDVDRAM GU70N Adapter: 0 ID: 0
Read mode : SecureUtilize accurate stream : YesDefeat audio cache : YesMake use of C2 pointers : No
Read offset correction : 48Overread into Lead-In and Lead-Out : NoFill up missing offset samples with silence : YesDelete leading and trailing silent blocks : NoNull samples used in CRC calculations : YesUsed interface : Native Win32 interface for Win NT & 2000
Used output format : User Defined EncoderSelected bitrate : 128 kBit/sQuality : HighAdd ID3 tag : NoCommand line compressor : C:\Program Files (x86)\Exact Audio Copy\Flac\flac.exeAdditional command line options : -V -8 -T "Date=%year%" -T "Genre=%genre%" %source%
TOC of the extracted CD
Track | Start | Length | Start sector | End sector --------------------------------------------------------- 1 | 0:00.00 | 4:00.00 | 0 | 17999 2 | 4:00.00 | 2:24.07 | 18000 | 28806 3 | 6:24.07 | 4:16.53 | 28807 | 48059 4 | 10:40.60 | 6:02.28 | 48060 | 75237 5 | 16:43.13 | 1:52.57 | 75238 | 83694 6 | 18:35.70 | 3:12.55 | 83695 | 98149 7 | 21:48.50 | 3:53.44 | 98150 | 115668 8 | 25:42.19 | 0:46.25 | 115669 | 119143 9 | 26:28.44 | 2:35.32 | 119144 | 130800
Range status and errors
Selected range
Filename C:\temp\BIS-SACD-1706-06 - Handel - Concerti grossi Op.6\Handel - Concerti grossi Op.6 - CD3.wav
Peak level 99.9 % Extraction speed 1.8 X Range quality 99.9 % Test CRC 168A2C32 Copy CRC 168A2C32 Copy OK
No errors occurred
AccurateRip summary
Track 1 accurately ripped (confidence 10) [51E0D9E2] (AR v2)Track 2 accurately ripped (confidence 10) [856C25A9] (AR v2)Track 3 accurately ripped (confidence 10) [159B71A2] (AR v2)Track 4 accurately ripped (confidence 10) [335FC58A] (AR v2)Track 5 accurately ripped (confidence 10) [D7C2F5C4] (AR v2)Track 6 accurately ripped (confidence 10) [825D9322] (AR v2)Track 7 accurately ripped (confidence 10) [AED3D258] (AR v2)Track 8 accurately ripped (confidence 10) [2C5FAF9A] (AR v2)Track 9 accurately ripped (confidence 10) [5C901DE6] (AR v2)
All tracks accurately ripped
End of status report
==== Log checksum F704006F3E3381FA8A00096F365A19DFDCD0B471300AD23A1062CB0B6B4CDD0A ====



Показать сообщения:    

Текущее время: 09-Дек 03:02

Часовой пояс: UTC + 3


Вы не можете начинать темы
Вы не можете отвечать на сообщения
Вы не можете редактировать свои сообщения
Вы не можете удалять свои сообщения
Вы не можете голосовать в опросах
Вы не можете прикреплять файлы к сообщениям
Вы не можете скачивать файлы