(Classical) Elena Kats-Chernin - Wild Swans. Concert Suite, Piano Concerto No. 2, Mythic (Ola Rudner, Tasmanian Symphony Orchestra, Jane Sheldon, Ian Munro) - 2005, FLAC (image+.cue) lossless


 

[Цитировать]

Elena Kats-Chernin - Wild Swans. Concert Suite, Piano Concerto No. 2, Mythic
Жанр: Classical
Год издания диска: 2005
Издатель (лейбл): ABC
Номер по каталогу: 476 7639
Дата записи:
Аудиокодек: FLAC
Тип рипа: image+.cue
Битрейт аудио: lossless
Продолжительность: 01:06:31
Источник: скачано из сети
Наличие сканов в содержимом раздачи: да
Исполнители:
Elena Kats-Chernin
Jane Sheldon (soprano),
Ian Munro (piano),
Tasmanian Symphony Orchestra.
Ola Rudner.
Треклист:
Wild Swans Concert Suite
01. I. Green Leaf [0:02:38.42]
02. II. Eliza Aria [0:03:17.29]
03. III. Brothers [0:01:49.60]
04. IV. Wicked Witch [0:01:51.18]
05. V. Magic Spell Tango [0:03:41.62]
06. VI. Good Fairy [0:03:16.22]
07. VII. Knitting Nettles [0:03:17.29]
08. VIII. Darkness in the Forest [0:03:42.41]
09. IX. Eliza and the Prince [0:03:54.60]
10. X. Glow Worms [0:01:28.20]
11. XI. Mute Princess [0:03:50.30]
12. XII. Transformation [0:03:59.20]
Jane Sheldon soprano
Piano Concerto No. 2
13. Movement 1 [0:05:34.15]
14. Movement 2 [0:04:07.67]
15. Movement 3 [0:02:47.01]
16. Movement 4 [0:05:53.54]
Ian Munro piano
17. Mythic [0:11:28.28]

LOG EAC

Exact Audio Copy V1.0 beta 3 from 29. August 2011
EAC extraction logfile from 8. August 2014, 1:08
Elena Kats-Chernin / Wild Swans Concert Suite, Piano Concerto No. 2, Mythic
Used drive : TSSTcorpCDDVDW SH-S223C Adapter: 2 ID: 1
Read mode : SecureUtilize accurate stream : YesDefeat audio cache : YesMake use of C2 pointers : No
Read offset correction : 697Overread into Lead-In and Lead-Out : NoFill up missing offset samples with silence : YesDelete leading and trailing silent blocks : NoNull samples used in CRC calculations : YesUsed interface : Native Win32 interface for Win NT & 2000
Used output format : User Defined EncoderSelected bitrate : 1024 kBit/sQuality : HighAdd ID3 tag : NoCommand line compressor : C:\Program Files (x86)\Exact Audio Copy\FLAC\FLAC.EXEAdditional command line options : -V -0 -T "COMMENT=Ripped by Tapaz9" -T "artist=%artist%" -T "title=%title%" -T "album=%albumtitle%" -T "date=%year%" -T "tracknumber=%tracknr%" -T "genre=%genre%" %source%
TOC of the extracted CD
Track | Start | Length | Start sector | End sector---------------------------------------------------------1 | 0:00.00 | 2:38.42 | 0 | 118912 | 2:38.42 | 3:17.29 | 11892 | 266953 | 5:55.71 | 1:49.60 | 26696 | 349304 | 7:45.56 | 1:51.18 | 34931 | 432735 | 9:36.74 | 3:41.62 | 43274 | 599106 | 13:18.61 | 3:16.22 | 59911 | 746327 | 16:35.08 | 3:17.29 | 74633 | 894368 | 19:52.37 | 3:42.41 | 89437 | 1061279 | 23:35.03 | 3:54.60 | 106128 | 12373710 | 27:29.63 | 1:28.20 | 123738 | 13035711 | 28:58.08 | 3:50.30 | 130358 | 14763712 | 32:48.38 | 3:59.20 | 147638 | 16558213 | 36:47.58 | 5:34.15 | 165583 | 19064714 | 42:21.73 | 4:07.67 | 190648 | 20923915 | 46:29.65 | 2:47.01 | 209240 | 22176516 | 49:16.66 | 5:53.54 | 221766 | 24829417 | 55:10.45 | 11:28.28 | 248295 | 299922
Range status and errors
Selected range
Filename F:\Musique\Kats-Chernin, Elena\Kats_Chernin_WildSwans\Elena Kats-Chernin - Wild Swans Concert Suite, Piano Concerto No. 2, Mythic.wav
Peak level 89.4 %Extraction speed 9.4 XRange quality 99.9 %Copy CRC FE35F525Copy OK
No errors occurred
End of status report
==== Log checksum 4B5472757006CBCC8DBD9885A414A9E136A0504649C2BB3CEBFA6CEF818CC035 ====



Показать сообщения:    

Текущее время: 07-Дек 19:30

Часовой пояс: UTC + 3


Вы не можете начинать темы
Вы не можете отвечать на сообщения
Вы не можете редактировать свои сообщения
Вы не можете удалять свои сообщения
Вы не можете голосовать в опросах
Вы не можете прикреплять файлы к сообщениям
Вы не можете скачивать файлы