(Classical, ballet) Петр Чайковский - Щелкунчик - Berliner Philharmoniker, Simon Rattle - 2CD - 2010, FLAC (image+.cue) lossless


 

[Цитировать]

Петр Чайковский - Щелкунчик - Berliner Philharmoniker, Simon Rattle - 2CD
Жанр: Classical, ballet
Страна-производитель диска: UK
Год издания диска: 2010
Издатель (лейбл): EMI
Дата записи: 2009
Аудиокодек: FLAC
Тип рипа: image+.cue
Битрейт аудио: lossless
Продолжительность: 86:24
Источник: собственный рип
Наличие сканов в содержимом раздачи: да
Треклист:
Петр Ильич Чайковский (1840-1893)
Щелкунчик
CD1
[1] Увертюра
[2]-[10] Акт 1
CD2
[1]-[14] Акт 2
Исполнители:
Berliner Philharmoniker
Sir Simon Rattle

Лог создания рипа: CD1

Exact Audio Copy V1.0 beta 3 from 29. August 2011
EAC extraction logfile from 26. August 2014, 12:17
Berliner Philharmoniker, Simon Rattle / Tchaikovsky - The Nutcracker - Act 1
Used drive : HL-DT-STDVDRAM GU70N Adapter: 0 ID: 0
Read mode : SecureUtilize accurate stream : YesDefeat audio cache : YesMake use of C2 pointers : No
Read offset correction : 48Overread into Lead-In and Lead-Out : NoFill up missing offset samples with silence : YesDelete leading and trailing silent blocks : NoNull samples used in CRC calculations : YesUsed interface : Native Win32 interface for Win NT & 2000
Used output format : User Defined EncoderSelected bitrate : 128 kBit/sQuality : HighAdd ID3 tag : NoCommand line compressor : C:\Program Files (x86)\Exact Audio Copy\Flac\flac.exeAdditional command line options : -V -8 -T "Date=%year%" -T "Genre=%genre%" %source%
TOC of the extracted CD
Track | Start | Length | Start sector | End sector --------------------------------------------------------- 1 | 0:00.02 | 3:08.72 | 2 | 14173 2 | 3:08.74 | 3:47.31 | 14174 | 31229 3 | 6:56.30 | 2:25.46 | 31230 | 42150 4 | 9:22.01 | 2:16.26 | 42151 | 52376 5 | 11:38.27 | 5:27.73 | 52377 | 76974 6 | 17:06.25 | 6:14.41 | 76975 | 105065 7 | 23:20.66 | 6:18.65 | 105066 | 133480 8 | 29:39.56 | 3:26.73 | 133481 | 149003 9 | 33:06.54 | 3:58.53 | 149004 | 166906 10 | 37:05.32 | 6:42.15 | 166907 | 197071
Range status and errors
Selected range
Filename C:\temp\Tchaikovsky - The Nutcracker - Rattle\Tchaikovsky - The Nutcracker - CD1.wav
Peak level 97.9 % Extraction speed 4.7 X Range quality 100.0 % Test CRC A6D870B4 Copy CRC A6D870B4 Copy OK
No errors occurred
AccurateRip summary
Track 1 accurately ripped (confidence 45) [DBA61A62] (AR v2)Track 2 accurately ripped (confidence 44) [A33C1402] (AR v2)Track 3 accurately ripped (confidence 44) [A99F9220] (AR v2)Track 4 accurately ripped (confidence 44) [0A361A35] (AR v2)Track 5 accurately ripped (confidence 44) [9A8CAAFD] (AR v2)Track 6 accurately ripped (confidence 44) [FB8CDAD4] (AR v2)Track 7 accurately ripped (confidence 43) [48749CDF] (AR v2)Track 8 accurately ripped (confidence 43) [B07FF012] (AR v2)Track 9 accurately ripped (confidence 43) [27A2621A] (AR v2)Track 10 accurately ripped (confidence 44) [2212635B] (AR v2)
All tracks accurately ripped
End of status report
==== Log checksum 1C0ABB9F5CC18EB017693BC674170BC63B5C8AF15060E379BD2D2445DCC8923A ====

Лог создания рипа: CD2

Exact Audio Copy V1.0 beta 3 from 29. August 2011
EAC extraction logfile from 27. August 2014, 1:01
Berliner Philharmoniker, Simon Rattle / Tchaikovsky - The Nutcracker - Act 2
Used drive : HL-DT-STDVDRAM GU70N Adapter: 0 ID: 0
Read mode : SecureUtilize accurate stream : YesDefeat audio cache : YesMake use of C2 pointers : No
Read offset correction : 48Overread into Lead-In and Lead-Out : NoFill up missing offset samples with silence : YesDelete leading and trailing silent blocks : NoNull samples used in CRC calculations : YesUsed interface : Native Win32 interface for Win NT & 2000
Used output format : User Defined EncoderSelected bitrate : 128 kBit/sQuality : HighAdd ID3 tag : NoCommand line compressor : C:\Program Files (x86)\Exact Audio Copy\Flac\flac.exeAdditional command line options : -V -8 -T "Date=%year%" -T "Genre=%genre%" %source%
TOC of the extracted CD
Track | Start | Length | Start sector | End sector --------------------------------------------------------- 1 | 0:00.02 | 3:50.24 | 2 | 17275 2 | 3:50.26 | 4:57.67 | 17276 | 39617 3 | 8:48.18 | 1:13.00 | 39618 | 45092 4 | 10:01.18 | 3:53.67 | 45093 | 62634 5 | 13:55.10 | 1:12.20 | 62635 | 68054 6 | 15:07.30 | 1:09.09 | 68055 | 73238 7 | 16:16.39 | 2:29.03 | 73239 | 84416 8 | 18:45.42 | 2:32.74 | 84417 | 95890 9 | 21:18.41 | 6:55.60 | 95891 | 127075 10 | 28:14.26 | 5:06.40 | 127076 | 150065 11 | 33:20.66 | 0:39.09 | 150066 | 152999 12 | 34:00.00 | 2:24.61 | 153000 | 163860 13 | 36:24.61 | 1:21.22 | 163861 | 169957 14 | 37:46.08 | 4:51.57 | 169958 | 191839
Range status and errors
Selected range
Filename C:\temp\Tchaikovsky - The Nutcracker - Rattle\Tchaikovsky - The Nutcracker - CD2.wav
Peak level 97.7 % Extraction speed 1.8 X Range quality 100.0 % Test CRC 6456B2A6 Copy CRC 6456B2A6 Copy OK
No errors occurred
AccurateRip summary
Track 1 accurately ripped (confidence 46) [841B91BD] (AR v2)Track 2 accurately ripped (confidence 46) [D2BD31DC] (AR v2)Track 3 accurately ripped (confidence 46) [89562D5B] (AR v2)Track 4 accurately ripped (confidence 46) [26BA8CEF] (AR v2)Track 5 accurately ripped (confidence 46) [43AABE64] (AR v2)Track 6 accurately ripped (confidence 46) [E1F99245] (AR v2)Track 7 accurately ripped (confidence 46) [CF25578B] (AR v2)Track 8 accurately ripped (confidence 46) [4BE51E2C] (AR v2)Track 9 accurately ripped (confidence 46) [9322D43D] (AR v2)Track 10 accurately ripped (confidence 46) [254A16D4] (AR v2)Track 11 accurately ripped (confidence 46) [595F1BED] (AR v2)Track 12 accurately ripped (confidence 46) [61AFB1EA] (AR v2)Track 13 accurately ripped (confidence 46) [666E234C] (AR v2)Track 14 accurately ripped (confidence 46) [29647036] (AR v2)
All tracks accurately ripped
End of status report
==== Log checksum 4C319FF81C32B6918FDA285B9D8A4AB4A0F650F2491E5F18710EDB00F29F6C93 ====



Показать сообщения:    

Текущее время: 08-Дек 14:57

Часовой пояс: UTC + 3


Вы не можете начинать темы
Вы не можете отвечать на сообщения
Вы не можете редактировать свои сообщения
Вы не можете удалять свои сообщения
Вы не можете голосовать в опросах
Вы не можете прикреплять файлы к сообщениям
Вы не можете скачивать файлы