(Classical) Maurice Ravel - Alborado del gracioso, Rapsodie espagnole, Valses nobles et sentimentales, La Valse, Bolero - Jesus Lopez-Cobos - 1988, FLAC (image+.cue) lossless


 

[Цитировать]

Maurice Ravel - Alborado del gracioso, Rapsodie espagnole, Valses nobles et sentimentales, La Valse, Bolero - Jesus Lopez-Cobos
Жанр: Classical
Страна-производитель диска: Austria
Год издания диска: 1988
Издатель (лейбл): Telarc
Номер по каталогу: CD-80171
Дата записи: 1988
Аудиокодек: FLAC
Тип рипа: image+.cue
Битрейт аудио: lossless
Продолжительность: 66.42
Источник: собственный рип
Наличие сканов в содержимом раздачи: да
Треклист:
Maurice Ravel
(1875-1937)

1. Alborado del gracioso [7:16]
Rapsodie espagnole [15:09]

2. I. Prelude a la nuit [4:22]
3. II. Malaguefia [2:03]
4. III. Habanera [2:26]
5. IV. Feria[6:17]
Valses nobles et sentimentales [16:31]
6. I. Modere [1:20]
7. II. Assez lent [2:36]
8. III. Modere [1:46]
9. IV. Assez anime [1:18]
10. V. Presque lent [1:18]
11. VI. Assez vif [0:55]
12. VII. Moins vif [3:15]
13. VIII. Epilogue [4:04]
14. La Valse [12:06]
15. Bolero [15:25]

Исполнители:
JESUS LOPEZ-COBOS - CINCINNATI SYMPHONY ORCHESTRA

Лог создания рипа

Exact Audio Copy V1.0 beta 3 from 29. August 2011
Отчёт EAC об извлечении, выполненном 24. августа 2014, 21:02
Maurice Ravel / Bolero, La Valse & Other Works - Cinciinnati Symphony Orchestra - Jesus Lopez-Cobos
Дисковод: TSSTcorpBDDVDW SE-506BB Adapter: 1 ID: 0
Режим чтения : ДостоверностьИспользование точного потока : ДаОтключение кэша аудио : ДаИспользование указателей C2 : Нет
Коррекция смещения при чтении : 6Способность читать области Lead-in и Lead-out : НетЗаполнение пропущенных сэмплов тишиной : ДаУдаление блоков с тишиной в начале и конце : НетПри вычислениях CRC использовались нулевые сэмплы : ДаИнтерфейс : Встроенный Win32-интерфейс для Win NT/2000
Выходной формат : Пользовательский кодировщикВыбранный битрейт : 768 kBit/sКачество : ВысокийДобавление ID3-тега : НетУтилита сжатия : E:\Program Files\audio\EAC\FLAC\FLAC.EXEДополнительные параметры : -6 -V -T "ARTIST=%artist%" -T "TITLE=%title%" -T "ALBUM=%albumtitle%" -T "DATE=%year%" -T "TRACKNUMBER=%tracknr%" -T "GENRE=%genre%" -T "COMMENT=%comment%" -T "BAND=%albuminterpret%" -T "ALBUMARTIST=%albuminterpret%" -T "COMPOSER=%composer%" %haslyrics%--tag-from-file=LYRICS="%lyricsfile%"%haslyrics% -T "DISCNUMBER=%cdnumber%" -T "TOTALDISCS=%totalcds%" -T "TOTALTRACKS=%numtracks%" %hascover%--picture="%coverfile%"%hascover% %source% -o %dest%
TOC извлечённого CD
Трек | Старт | Длительность | Начальный сектор | Конечный сектор --------------------------------------------------------------------- 1 | 0:00.00 | 7:22.12 | 0 | 33161 2 | 7:22.12 | 4:24.00 | 33162 | 52961 3 | 11:46.12 | 2:02.60 | 52962 | 62171 4 | 13:48.72 | 2:26.63 | 62172 | 73184 5 | 16:15.60 | 6:19.70 | 73185 | 101679 6 | 22:35.55 | 1:21.22 | 101680 | 107776 7 | 23:57.02 | 2:36.48 | 107777 | 119524 8 | 26:33.50 | 1:46.45 | 119525 | 127519 9 | 28:20.20 | 1:17.20 | 127520 | 133314 10 | 29:37.40 | 1:17.40 | 133315 | 139129 11 | 30:55.05 | 0:55.10 | 139130 | 143264 12 | 31:50.15 | 3:14.10 | 143265 | 157824 13 | 35:04.25 | 4:04.37 | 157825 | 176161 14 | 39:08.62 | 12:08.00 | 176162 | 230761 15 | 51:16.62 | 15:30.13 | 230762 | 300524
Характеристики диапазона извлечения и сообщения об ошибках
Выбранный диапазон
Имя файла M:\_Music\Classics\Ravel - Bolero, La Valse & Other Works - Jesus Lopez-Cobos\Ravel - Bolero, La Valse & Other Works - Jesus Lopez-Cobos.wav
Пиковый уровень 97.9 % Скорость извлечения 2.2 X Качество диапазона 100.0 % CRC копии 79A71362 Копирование... OK
Ошибок не произошло
AccurateRip: сводка
Трек 1 : извлечено точно (доверие 5) [139DFABF] (AR v2)Трек 2 : извлечено точно (доверие 5) [7489F05B] (AR v2)Трек 3 : извлечено точно (доверие 5) [7D528908] (AR v2)Трек 4 : извлечено точно (доверие 5) [19473F55] (AR v2)Трек 5 : извлечено точно (доверие 5) [85141019] (AR v2)Трек 6 : извлечено точно (доверие 5) [46368909] (AR v2)Трек 7 : извлечено точно (доверие 5) [4BE9AA47] (AR v2)Трек 8 : извлечено точно (доверие 5) [FF8C9958] (AR v2)Трек 9 : извлечено точно (доверие 5) [5DB08DE0] (AR v2)Трек 10 : извлечено точно (доверие 5) [ED069C3D] (AR v2)Трек 11 : извлечено точно (доверие 5) [F2E012B1] (AR v2)Трек 12 : извлечено точно (доверие 5) [74932E7F] (AR v2)Трек 13 : извлечено точно (доверие 5) [F41EA3E0] (AR v2)Трек 14 : извлечено точно (доверие 5) [069F80FA] (AR v2)Трек 15 : извлечено точно (доверие 5) [2BADC993] (AR v2)
Все треки извлечены точно
Конец отчёта

Содержание индексной карты (.CUE)

REM GENRE ClassicalREM DATE 1988REM DISCID DD0FA70FREM COMMENT "ExactAudioCopy v1.0b3"PERFORMER "Maurice Ravel"TITLE "Bolero, La Valse & Other Works - Cinciinnati Symphony Orchestra - Jesus Lopez..."FILE "Ravel - Bolero, La Valse & Other Works - Jesus Lopez-Cobos.flac" WAVE TRACK 01 AUDIO TITLE "Alborado Del Gracioso" PERFORMER "Maurice Ravel" INDEX 01 00:00:00 TRACK 02 AUDIO TITLE "Rapsodie Espagnole - I Prelude a la Nuit" PERFORMER "Maurice Ravel" INDEX 01 07:22:12 TRACK 03 AUDIO TITLE "Rapsodie Espagnole - II Malaguena" PERFORMER "Maurice Ravel" INDEX 01 11:46:12 TRACK 04 AUDIO TITLE "Rapsodie Espagnole - III Habanera" PERFORMER "Maurice Ravel" INDEX 01 13:48:72 TRACK 05 AUDIO TITLE "Rapsodie Espagnole - IV Feria" PERFORMER "Maurice Ravel" INDEX 01 16:15:60 TRACK 06 AUDIO TITLE "Valses Nobles Et Sentimentales - I Modere" PERFORMER "Maurice Ravel" INDEX 01 22:35:55 TRACK 07 AUDIO TITLE "Valses Nobles Et Sentimentales - II Assez Lent" PERFORMER "Maurice Ravel" INDEX 01 23:57:02 TRACK 08 AUDIO TITLE "Valses Nobles Et Sentimentales - III Modere" PERFORMER "Maurice Ravel" INDEX 01 26:33:50 TRACK 09 AUDIO TITLE "Valses Nobles Et Sentimentales - IV Assez Anime" PERFORMER "Maurice Ravel" INDEX 01 28:20:20 TRACK 10 AUDIO TITLE "Valses Nobles Et Sentimentales - V Presque Lent" PERFORMER "Maurice Ravel" INDEX 01 29:37:40 TRACK 11 AUDIO TITLE "Valses Nobles Et Sentimentales - VI Assez Vif" PERFORMER "Maurice Ravel" INDEX 01 30:55:05 TRACK 12 AUDIO TITLE "Valses Nobles Et Sentimentales - VII Moins Vif" PERFORMER "Maurice Ravel" INDEX 01 31:50:15 TRACK 13 AUDIO TITLE "Valses Nobles Et Sentimentales - VIII Epilogue" PERFORMER "Maurice Ravel" INDEX 01 35:04:25 TRACK 14 AUDIO TITLE "La Valse" PERFORMER "Maurice Ravel" INDEX 01 39:08:62 TRACK 15 AUDIO TITLE "Bolero" PERFORMER "Maurice Ravel" INDEX 01 51:16:62



Показать сообщения:    

Текущее время: 04-Дек 19:16

Часовой пояс: UTC + 3


Вы не можете начинать темы
Вы не можете отвечать на сообщения
Вы не можете редактировать свои сообщения
Вы не можете удалять свои сообщения
Вы не можете голосовать в опросах
Вы не можете прикреплять файлы к сообщениям
Вы не можете скачивать файлы