(Orchestral) Богуслав Мартину - Удивительный полёт, Кухонное ревю, Внимание, съёмка! / Bohuslav Martinu - Le Raid merveilleux, La Revue de Сuisine, On tourne! (Czech Philharmonic, Christopher Hogwood) - 2004, APE (image+.cue) lossless


 

[Цитировать]

Martinu - Le Raid merveilleux, La Revue de Cuisine, On tourne!
Жанр: Orchestral
Страна-производитель диска: Czech Republic
Год издания диска: 2004
Издатель (лейбл): Supraphon
Номер по каталогу: SU 3749-2 031
Дата записи: 2003
Аудиокодек: APE
Тип рипа: image+.cue
Битрейт аудио: lossless
Продолжительность: 64'57
Источник: скачано с
Наличие сканов в содержимом раздачи: да
Треклист:
Bohuslav Martinu (1890-1959)
Le Raid Merveilleux (The Amaizing Flight), a mechanical ballet for clarinets, trombone & string quartet, H.159 (1927)
01 Tableau 1. Un oiseau (2:52)
02 Tableau 2: Une helice (3:01)
03 Tableau 3: Les cartes (3:01)
04 Tableau 4: Les reflecteurs et les affiches (3:21)
05 Tableau 5: La mer (4:37)
La Revue de Cuisine (Kitchen Revue), jazz ballet for clarinet, bassoon, trumpet, cello & piano, H. 161 (1927)
06 I. Prologue (0:35)
07 II. Introduction (1:12)
08 III. Dance du moulinet (1:56)
09 IV. Danse du chaudron et du couvercle (0:48)
10 V. Tango (4:01)
11 VI. Duel (2:09)
12 VII. Entracte (0:40)
13 VIII. Marche funebre (3:08)
14 IX. Danse radieuse (0:22)
15 X. Fin du drame (3:01)
On Tourne!, ballet in 1 act for chamber orchestra, H. 163 (1927)
16 Ouverture (4:34)
17 I. Le jeu des marionnettes (1:42)
18 II. La danse des poissons (3:06)
19 III. La scene dans le carre. Un homard est amoureux d'un poisson (4:31)
20 IV. La danse d'une perle (6:47)
21 V. Le scaphandrier kaisse son appareil (1:12)
22 VI. V. La scaphamdrier devient amoureux d'une perle et il lui fait la cour (2:29)
23 VII. Finale. La perle descend d'une coquille. Le scaphandrier fait sa declaration d'amour. La perle en est enchantee (5:35)
Исполнители:
Czech Philharmonic Orchestra
Christopher Hogwood, conductor

Лог создания рипа

Exact Audio Copy V0.99 prebeta 4 from 23. January 2008
EAC extraction logfile from 20. November 2009, 13:47
Martinu, Bohuslav / Le raid merveilleux, La revue de cuisine, On tourne
Used drive : HL-DT-STDVDRAM GSA-4120B Adapter: 0 ID: 0
Read mode : SecureUtilize accurate stream : YesDefeat audio cache : YesMake use of C2 pointers : No
Read offset correction : 667Overread into Lead-In and Lead-Out : NoFill up missing offset samples with silence : YesDelete leading and trailing silent blocks : NoNull samples used in CRC calculations : NoUsed interface : Installed external ASPI interface
Used output format : Monkey's Audio Lossless Encoder v3.99 DLLSample format : Fast Lossless Compression
TOC of the extracted CD
Track | Start | Length | Start sector | End sector --------------------------------------------------------- 1 | 0:00.00 | 2:52.31 | 0 | 12930 2 | 2:52.31 | 3:01.62 | 12931 | 26567 3 | 5:54.18 | 3:01.71 | 26568 | 40213 4 | 8:56.14 | 3:21.24 | 40214 | 55312 5 | 12:17.38 | 4:37.23 | 55313 | 76110 6 | 16:54.61 | 0:35.68 | 76111 | 78803 7 | 17:30.54 | 1:12.70 | 78804 | 84273 8 | 18:43.49 | 1:56.23 | 84274 | 92996 9 | 20:39.72 | 0:48.05 | 92997 | 96601 10 | 21:28.02 | 4:01.30 | 96602 | 114706 11 | 25:29.32 | 2:09.27 | 114707 | 124408 12 | 27:38.59 | 0:49.02 | 124409 | 128085 13 | 28:27.61 | 3:08.08 | 128086 | 142193 14 | 31:35.69 | 0:22.06 | 142194 | 143849 15 | 31:58.00 | 3:01.31 | 143850 | 157455 16 | 34:59.31 | 4:34.35 | 157456 | 178040 17 | 39:33.66 | 1:42.20 | 178041 | 185710 18 | 41:16.11 | 3:06.32 | 185711 | 199692 19 | 44:22.43 | 4:31.31 | 199693 | 220048 20 | 48:53.74 | 6:47.09 | 220049 | 250582 21 | 55:41.08 | 1:12.10 | 250583 | 255992 22 | 56:53.18 | 2:29.01 | 255993 | 267168 23 | 59:22.19 | 5:35.33 | 267169 | 292326
Range status and errors
Selected range
Filename C:\TEMP\Martinu, Bohuslav - Le raid merveilleux, La revue de cuisine, On tourne.ape
Peak level 99.8 % Range quality 100.0 % Copy CRC CF47602F Copy OK
No errors occurred
AccurateRip summary
Track 1 not present in databaseTrack 2 not present in databaseTrack 3 not present in databaseTrack 4 not present in databaseTrack 5 not present in databaseTrack 6 not present in databaseTrack 7 not present in databaseTrack 8 not present in databaseTrack 9 not present in databaseTrack 10 not present in databaseTrack 11 not present in databaseTrack 12 not present in databaseTrack 13 not present in databaseTrack 14 not present in databaseTrack 15 not present in databaseTrack 16 not present in databaseTrack 17 not present in databaseTrack 18 not present in databaseTrack 19 not present in databaseTrack 20 not present in databaseTrack 21 not present in databaseTrack 22 not present in databaseTrack 23 not present in database
None of the tracks are present in the AccurateRip database
End of status report
Доп. информация: В 20-е годы список сочинений Мартину пополняется большим количеством балетов. Музыка для сцены расширяет диапазон его творчества, еще раз засвидетельствовав богатство фантазии и изобретательность композитора. Эти произведения непродолжительны по времени звучания (15—20 минут), и при всем различии содержания в них есть много сходных моментов. Здесь Мартину экспериментирует c джазом и неоклассицизмом, и характер экспериментов представляется весьма симптоматичным для того времени. В музыке есть некоторый элемент эстетства, желание быть рафинированно экстравагантным, но за всем этим подчас кроется серьезный подтекст.

О диске

"Удивительный полёт" (Le raid merveilleux, 1927) - механический балет без персонажей, вдохновлённый современными событиями: 8 мая 1927 года французские пилоты Шарль Нунжессер и Франсуа Колье погибли при попытке перелететь через Атлантику. Их самолет навсегда исчез в водах океана. Как дань памяти человеческой храбрости Мартину написал балет в пяти частях с символическими названиями: птица - символ полета, пропеллер - символ технологии, карта - символ пейзажа, средства связи, и море...
"Кухонное ревю" (Kitchen Revue, 1927), джаз-балет - одно из самых популярных сочинений Мартину. Действующие "лица" - кастрюля, посудное полотенце, веник, крышка, мутовка - разыгрывают бытовую драму. В балете три части (с прологом) - Танго, Чарльстон, Финал. Это ироничная пародия на мюзикл, остроумно обыгрывающая известные классические сочинения.
В балете "Внимание, съёмка!" (On tourne!, 1927) Мартину реанимирует жанр барочного народного театра. Это кукольное представление с участием моряков и водолаза, разворачивается на фоне морского пейзажа - надводного и подводного с различными видами рыб и фантастической флоры. В верхней части сцены изображается морская поверхность с лодкой и водолазом; в нижней — морское дно с фантастической растительностью и рыбами; водолаз с кинокамерой спускается на дно и делает съемки.



Показать сообщения:    

Текущее время: 11-Дек 07:10

Часовой пояс: UTC + 3


Вы не можете начинать темы
Вы не можете отвечать на сообщения
Вы не можете редактировать свои сообщения
Вы не можете удалять свои сообщения
Вы не можете голосовать в опросах
Вы не можете прикреплять файлы к сообщениям
Вы не можете скачивать файлы