(Post-Romantic, Impressionism) Флор Алпаартс - Оркестровые сочинения: Паллитер, Джеймс Энсор / Flor Alpaerts - Orchestral Works: Pallieter, James Ensor, Capriccio, Summer Idyll (Flemish RSO, Michel Tabachnik) - 2008, FLAC (tracks+.cue) lossless


 

[Цитировать]

Flor Alpaerts - Orchestral Works
Жанр: Post-Romantic, Impressionism
Страна-производитель диска: Belgium
Год издания диска: 2008
Издатель (лейбл): Etcetera
Номер по каталогу: KTS4025
Дата записи: 2007
Аудиокодек: FLAC
Тип рипа: tracks+.cue
Битрейт аудио: lossless
Продолжительность: 65'48
Источник: скачано с
Наличие сканов в содержимом раздачи: да
Треклист:
Flor Alpaerts (1876-1954)
01 Capriccio - Merriment (1953) (4:55)
Pallieter, suite (1924)
02 I. Morning in May (9:03)
03 II. Summer evening (10:36)
04 III. Wedding feast (9:12)
05 Romanza for Violin and Orchestra (1928) (5:57)
06 Summer Idyll (1928) (7:39)
James Ensor Suite (1928)
07 I. The entry of Christ into Brussels (3:44)
08 II. Skeletons fighting for the body of a hanged man (2:41)
09 III. The garden of love (6:25)
10 IV. Infernal cortege - Sabbath (3:34)
Исполнители:
Flemish Radio Orchestra
Guido de Neve, violin
Michel Tabachnik, conductor
rec. 14-17 may, 2007, Brussel

Лог создания рипа

Exact Audio Copy V0.99 prebeta 5 from 4. May 2009
EAC extraction logfile from 25. November 2010, 16:15
Guido de Neve, Flemish Radio Orchestra, Michel Tabachnik / Alpaerts - Orchestral Works
Used drive : SONY DVD RW DW-G121A Adapter: 0 ID: 0
Read mode : SecureUtilize accurate stream : YesDefeat audio cache : YesMake use of C2 pointers : No
Read offset correction : 6Overread into Lead-In and Lead-Out : NoFill up missing offset samples with silence : YesDelete leading and trailing silent blocks : NoNull samples used in CRC calculations : YesUsed interface : Installed external ASPI interfaceGap handling : Appended to previous track
Used output format : User Defined EncoderSelected bitrate : 32 kBit/sQuality : HighAdd ID3 tag : NoCommand line compressor : C:\Program Files\Exact Audio Copy\Flac\flac.exeAdditional command line options : -8 -V -T "artist=%a" -T "title=%t" -T "album=%g" -T "date=%y" -T "tracknumber=%n" -T "genre=%m" -T "comment=EAC V0.99 prebeta 5 - Secure Mode" %s
TOC of the extracted CD
Track | Start | Length | Start sector | End sector --------------------------------------------------------- 1 | 0:00.00 | 4:55.74 | 0 | 22198 2 | 4:55.74 | 9:03.03 | 22199 | 62926 3 | 13:59.02 | 10:36.14 | 62927 | 110640 4 | 24:35.16 | 9:12.47 | 110641 | 152087 5 | 33:47.63 | 5:57.01 | 152088 | 178863 6 | 39:44.64 | 7:39.60 | 178864 | 213348 7 | 47:24.49 | 3:44.72 | 213349 | 230220 8 | 51:09.46 | 2:41.48 | 230221 | 242343 9 | 53:51.19 | 6:25.22 | 242344 | 271240 10 | 60:16.41 | 3:34.22 | 271241 | 287312
Track 1
Filename C:\Alpaerts - Orchestral Works\01 Capriccio - Merriment.wav
Pre-gap length 0:00:02.00
Peak level 88.4 % Track quality 100.0 % Test CRC 80C7AB8A Copy CRC 80C7AB8A Track not present in AccurateRip database Copy OK
Track 2
Filename C:\Alpaerts - Orchestral Works\02 Pallieter - I. Morning in May.wav
Pre-gap length 0:00:03.41
Peak level 89.1 % Track quality 100.0 % Test CRC 15B3662A Copy CRC 15B3662A Track not present in AccurateRip database Copy OK
Track 3
Filename C:\Alpaerts - Orchestral Works\03 Pallieter - II. Summer evening.wav
Peak level 90.3 % Track quality 100.0 % Test CRC 045A7F48 Copy CRC 045A7F48 Track not present in AccurateRip database Copy OK
Track 4
Filename C:\Alpaerts - Orchestral Works\04 Pallieter - III. Wedding feast.wav
Peak level 86.4 % Track quality 100.0 % Test CRC 4436C6ED Copy CRC 4436C6ED Track not present in AccurateRip database Copy OK
Track 5
Filename C:\Alpaerts - Orchestral Works\05 Romanza for Violin and Orchestra.wav
Pre-gap length 0:00:01.98
Peak level 65.9 % Track quality 100.0 % Test CRC 46CA7301 Copy CRC 46CA7301 Track not present in AccurateRip database Copy OK
Track 6
Filename C:\Alpaerts - Orchestral Works\06 Summer Idyll.wav
Pre-gap length 0:00:01.84
Peak level 88.3 % Track quality 100.0 % Test CRC AC4B179E Copy CRC AC4B179E Track not present in AccurateRip database Copy OK
Track 7
Filename C:\Alpaerts - Orchestral Works\07 James Ensor Suite - I. The entry of Christ into Brussels.wav
Pre-gap length 0:00:01.94
Peak level 84.6 % Track quality 100.0 % Test CRC F635368A Copy CRC F635368A Track not present in AccurateRip database Copy OK
Track 8
Filename C:\Alpaerts - Orchestral Works\08 James Ensor Suite - II. Skeletons fighting for the body of a hanged man.wav
Peak level 80.6 % Track quality 100.0 % Test CRC 0FA5C2A6 Copy CRC 0FA5C2A6 Track not present in AccurateRip database Copy OK
Track 9
Filename C:\Alpaerts - Orchestral Works\09 James Ensor Suite - III. The garden of love.wav
Peak level 76.9 % Track quality 100.0 % Test CRC F75A18F8 Copy CRC F75A18F8 Track not present in AccurateRip database Copy OK
Track 10
Filename C:\Alpaerts - Orchestral Works\10 James Ensor Suite - IV. Infernal cortege - Sabbath.wav
Peak level 90.2 % Track quality 100.0 % Test CRC 60A83227 Copy CRC 60A83227 Track not present in AccurateRip database Copy OK
None of the tracks are present in the AccurateRip database
No errors occurred
End of status report

Содержание индексной карты (.CUE)

REM GENRE ClassicalREM DATE 2008REM DISCID 900EF60AREM COMMENT "ExactAudioCopy v0.99pb5"PERFORMER "Guido de Neve, Flemish Radio Orchestra, Michel Tabachnik"TITLE "Alpaerts - Orchestral Works"FILE "01 Capriccio - Merriment.wav" WAVE TRACK 01 AUDIO TITLE "Capriccio - Merriment" PERFORMER "Guido de Neve, Flemish Radio Orchestra, Michel Tabachnik" INDEX 01 00:00:00 TRACK 02 AUDIO TITLE "Pallieter - I. Morning in May" PERFORMER "Guido de Neve, Flemish Radio Orchestra, Michel Tabachnik" INDEX 00 04:52:43FILE "02 Pallieter - I. Morning in May.wav" WAVE INDEX 01 00:00:00FILE "03 Pallieter - II. Summer evening.wav" WAVE TRACK 03 AUDIO TITLE "Pallieter - II. Summer evening" PERFORMER "Guido de Neve, Flemish Radio Orchestra, Michel Tabachnik" INDEX 01 00:00:00FILE "04 Pallieter - III. Wedding feast.wav" WAVE TRACK 04 AUDIO TITLE "Pallieter - III. Wedding feast" PERFORMER "Guido de Neve, Flemish Radio Orchestra, Michel Tabachnik" INDEX 01 00:00:00 TRACK 05 AUDIO TITLE "Romanza for Violin and Orchestra" PERFORMER "Guido de Neve, Flemish Radio Orchestra, Michel Tabachnik" INDEX 00 09:10:48FILE "05 Romanza for Violin and Orchestra.wav" WAVE INDEX 01 00:00:00 TRACK 06 AUDIO TITLE "Summer Idyll" PERFORMER "Guido de Neve, Flemish Radio Orchestra, Michel Tabachnik" INDEX 00 05:55:13FILE "06 Summer Idyll.wav" WAVE INDEX 01 00:00:00 TRACK 07 AUDIO TITLE "James Ensor Suite - I. The entry of Christ into Brussels" PERFORMER "Guido de Neve, Flemish Radio Orchestra, Michel Tabachnik" INDEX 00 07:37:64FILE "07 James Ensor Suite - I. The entry of Christ into Brussels.wav" WAVE INDEX 01 00:00:00FILE "08 James Ensor Suite - II. Skeletons fighting for the body of a hanged man.wav" WAVE TRACK 08 AUDIO TITLE "James Ensor Suite - II. Skeletons fighting for the body of a hanged man" PERFORMER "Guido de Neve, Flemish Radio Orchestra, Michel Tabachnik" INDEX 01 00:00:00FILE "09 James Ensor Suite - III. The garden of love.wav" WAVE TRACK 09 AUDIO TITLE "James Ensor Suite - III. The garden of love" PERFORMER "Guido de Neve, Flemish Radio Orchestra, Michel Tabachnik" INDEX 01 00:00:00FILE "10 James Ensor Suite - IV. Infernal cortege - Sabbath.wav" WAVE TRACK 10 AUDIO TITLE "James Ensor Suite - IV. Infernal cortege - Sabbath" PERFORMER "Guido de Neve, Flemish Radio Orchestra, Michel Tabachnik" INDEX 01 00:00:00
Доп. информация: Диски серии "Flemish Connection" знакомят с видными представителями бельгийской музыкальной культуры. На этом CD представлены оркестровые сочинения Флора Алпаартса - бельгийского композитора фламандского направления. Он был довольно заметной фигурой в музыкальной жизни Бельгии 20-30х, возглавлял Антверпенскую консерваторию, а в своём творчестве стремился современными средствами воскресить жизнелюбивый дух эпохи нидерландского Возрождения. Музыка его представляет собой довольно привлекательный синтез позднего романтизма и импрессионизма. Опираясь на фламандскую мелодику, традиции Вагнера и Рихарда Штрауса, Алпаартс широко применял сочные оркестровые приёмы Дебюсси и Равеля. Наиболее известны две его сюиты - "Паллитер" 1924г. (по одноимённому роману Феликса Тиммерманса о весёлом любвеобильном помещике, с типичными для импрессионизма пейзажными зарисовками - I. Майское утро, II. Летний вечер и III. Свадебное застолье) и сюита "Джеймс Энсор" (1928), вдохновлённая мрачновато-сюрреалистическими картинами бельгийского живописца, которые довольно мастерски запечатлел в музыке композитор: I. Въезд Христа в Брюссель, II. Драка скелетов за тело повешенного, III. В саду любви, IV. Адский кортеж - Шабаш. Исполняет оркестр Фламандского радио и дирижёр Мишель Табачник.



Показать сообщения:    

Текущее время: 03-Дек 03:21

Часовой пояс: UTC + 3


Вы не можете начинать темы
Вы не можете отвечать на сообщения
Вы не можете редактировать свои сообщения
Вы не можете удалять свои сообщения
Вы не можете голосовать в опросах
Вы не можете прикреплять файлы к сообщениям
Вы не можете скачивать файлы