(Classical) Franck/Symphony in d-moll;Стравинский/Симфоническая поэма "Песня Соловья"/Symphonic Poem "Le Chant Du Rossignol" (The Philharmonia Orchestra/Silvestri) - 1998, FLAC (image+.cue) lossless


 

[Цитировать]

The Artistry of Constantin Silvestri Vol.2 -
Franck/Symphony in d-moll;
Стравинский/Симфоническая поэма "Песня Соловья"
(The Philharmonia Orchestra/Silvestri)
Жанр: Classical
Страна-производитель диска: Japan
Год издания диска: 1998
Издатель (лейбл): EMI
Номер по каталогу: YMCD-1034
Дата записи: 1-3 8 January & 5 March 1959. Kingsway Hall
4-6 14 & 17 June 1960. Abbey Road
Аудиокодек: FLAC
Тип рипа: image+.cue
Битрейт аудио: lossless
Продолжительность: 01:02:00
Источник: WEB
Наличие сканов в содержимом раздачи: да
Треклист:
Cesar Franck (1822-1890)
Symphony in d-moll
01. 1st Movement: Lento-Allegro non troppo (17:16)
02. 2nd Movement: Allegretto (11:06)
03. 3rd Movement: Allegro non troppo (9:54)
Игорь Стравинский (1882-1971)
Symphonic Poem "Le Chant Du Rossignol"
04. The First Part (6:10)
05. The Second Part (7:29)
06. The Third Part (9:45)
Исполнители:
The Philharmonia Orchestra
conducted by Constantin Silvestri

Лог создания рипа

Exact Audio Copy V1.0 beta 3 from 29. August 2011
EAC extraction logfile from 21. May 2014, 21:32
Unknown Artist / The Artistry of Constantin Silvestri vol 2
Used drive : SONY CD-RW CRX210E1 Adapter: 0 ID: 0
Read mode : SecureUtilize accurate stream : YesDefeat audio cache : YesMake use of C2 pointers : No
Read offset correction : 6Overread into Lead-In and Lead-Out : NoFill up missing offset samples with silence : YesDelete leading and trailing silent blocks : NoNull samples used in CRC calculations : YesUsed interface : Installed external ASPI interface
Used output format : Internal WAV RoutinesSample format : 44.100 Hz; 16 Bit; Stereo
TOC of the extracted CD
Track | Start | Length | Start sector | End sector --------------------------------------------------------- 1 | 0:00.00 | 17:21.55 | 0 | 78129 2 | 17:21.55 | 11:12.15 | 78130 | 128544 3 | 28:33.70 | 10:01.72 | 128545 | 173691 4 | 38:35.67 | 6:10.20 | 173692 | 201461 5 | 44:46.12 | 7:29.13 | 201462 | 235149 6 | 52:15.25 | 9:45.30 | 235150 | 279054
Range status and errors
Selected range
Filename D:\music\Lossless-flac.com_Rip by moote\The Artistry of Constantin Silvestri vol 2.wav
Peak level 100.0 % Extraction speed 16.8 X Range quality 99.9 % Test CRC 39FF5B7E Copy CRC 39FF5B7E Copy OK
No errors occurred
AccurateRip summary
Track 1 not present in databaseTrack 2 not present in databaseTrack 3 not present in databaseTrack 4 not present in databaseTrack 5 not present in databaseTrack 6 not present in database
None of the tracks are present in the AccurateRip database
End of status report

Лог проверки качества

Скриншот спектра частот




Показать сообщения:    

Текущее время: 03-Дек 01:20

Часовой пояс: UTC + 3


Вы не можете начинать темы
Вы не можете отвечать на сообщения
Вы не можете редактировать свои сообщения
Вы не можете удалять свои сообщения
Вы не можете голосовать в опросах
Вы не можете прикреплять файлы к сообщениям
Вы не можете скачивать файлы