(Classical, contemporary) Julian Anderson - Fantasias; The Crazed Moon; The Discovery of Heaven - London Philharmonic Orchestra, Владимир Юровский (Jurowski), Ryan Wigglesworth - 2013, FLAC (image+.cue) lossless


 

[Цитировать]

Julian Anderson - Fantasias; The Crazed Moon; The Discovery of Heaven - London Philharmonic Orchestra, Vladimir Jurowski, Ryan Wigglesworth
Жанр: Classical, contemporary
Страна-производитель диска: UK
Год издания диска: 2013
Издатель (лейбл): LPO
Номер по каталогу: LPO-0074
Дата записи: 2011, 2012
Аудиокодек: FLAC
Тип рипа: image+.cue
Битрейт аудио: lossless
Продолжительность: 59:12
Источник: собственный рип
Наличие сканов в содержимом раздачи: да
Треклист:
Julian Anderson (b.1967)
[1]-[5] Fantasias
World premiere recording
[6] The Crazed Moon
[7]-[9] The Discovery of Heaven
World premiere performance and recording
Исполнители:
London Philharmonic Orchestra
Vladimir Jurowski
conductor (Fantasias; The Crazed Moon)
Ryan Wigglesworth conductor (The Discovery of Heaven)

Лог создания рипа

Exact Audio Copy V1.0 beta 3 from 29. August 2011
EAC extraction logfile from 27. June 2014, 16:53
London Philharmonic Orchestra, Vladimir Jurowski, Ryan Wigglesworth / Julian Anderson - Orchestral Works
Used drive : HL-DT-STDVDRRW GWA-4164B Adapter: 5 ID: 0
Read mode : SecureUtilize accurate stream : YesDefeat audio cache : YesMake use of C2 pointers : No
Read offset correction : 102Overread into Lead-In and Lead-Out : NoFill up missing offset samples with silence : YesDelete leading and trailing silent blocks : NoNull samples used in CRC calculations : YesUsed interface : Native Win32 interface for Win NT & 2000
Used output format : User Defined EncoderSelected bitrate : 896 kBit/sQuality : HighAdd ID3 tag : NoCommand line compressor : C:\Program Files\Exact Audio Copy\FLAC\FLAC.EXEAdditional command line options : -V -8 %source%
TOC of the extracted CD
Track | Start | Length | Start sector | End sector --------------------------------------------------------- 1 | 0:00.00 | 3:18.63 | 0 | 14912 2 | 3:18.63 | 5:01.22 | 14913 | 37509 3 | 8:20.10 | 6:30.68 | 37510 | 66827 4 | 14:51.03 | 2:14.13 | 66828 | 76890 5 | 17:05.16 | 7:23.02 | 76891 | 110117 6 | 24:28.18 | 13:53.67 | 110118 | 172659 7 | 38:22.10 | 6:31.27 | 172660 | 202011 8 | 44:53.37 | 7:15.06 | 202012 | 234642 9 | 52:08.43 | 7:04.17 | 234643 | 266459
Range status and errors
Selected range
Filename D:\temp\Music\Julian Anderson - Orchestral Works\Julian Anderson - Orchestral Works.wav
Peak level 100.0 % Extraction speed 2.7 X Range quality 100.0 % Test CRC 0F72A52E Copy CRC 0F72A52E Copy OK
No errors occurred
AccurateRip summary
Track 1 not present in databaseTrack 2 not present in databaseTrack 3 not present in databaseTrack 4 not present in databaseTrack 5 not present in databaseTrack 6 not present in databaseTrack 7 not present in databaseTrack 8 not present in databaseTrack 9 not present in database
None of the tracks are present in the AccurateRip database
End of status report
==== Log checksum 19B0E1EF43D7B29C15240585FFD095DB911C6DE2D556E7FA5AEA335D19227386 ====



Показать сообщения:    

Текущее время: 07-Дек 21:23

Часовой пояс: UTC + 3


Вы не можете начинать темы
Вы не можете отвечать на сообщения
Вы не можете редактировать свои сообщения
Вы не можете удалять свои сообщения
Вы не можете голосовать в опросах
Вы не можете прикреплять файлы к сообщениям
Вы не можете скачивать файлы