(Classical) George Enescu - Romanian Rhapsody No.1 in A major, Op.11; Suite No.2 in C major, Op.20; Suite No.3 in D major, Op.27: Orchestral Works, Vol.4 (Cristian Mandeal, George Enescu Bucharest Philharmonic) - 2007, FLAC (image+.cue) lossless


 

[Цитировать]

George Enescu - Romanian Rhapsody No.1 in A major, Op.11; Suite No.2 in C major, Op.20; Suite No.3 in D major, Op.27: Orchestral Works, Vol.4 (Cristian Mandeal, George Enescu Bucharest Philharmonic)
Жанр: Classical
Год издания диска: 2007
Издатель (лейбл): Arte Nova Classics
Номер по каталогу:
Дата записи: 1994-1996
Аудиокодек: FLAC
Тип рипа: image+.cue
Битрейт аудио: lossless
Продолжительность: 68:36
Источник: скачано из сети
Наличие сканов в содержимом раздачи: да
Треклист:
01. Romanian Rhapsody No.1 in A major, Op.11 - 1 [0:13:28.57]
Suite No.2 in C major, Op.20
02. I. Overture [0:04:37.05]
03. II. Sarabande [0:04:33.65]
04. III. Gigue [0:02:25.00]
05. IV. Menuet grave [0:02:16.65]
06. V. Air [0:05:32.00]
07. VI.Bourree [0:09:44.10]
Suite No.3 in D major, Op.27 'Villageoise'
08. I. Renouveau champetre [0:05:17.58]
09. II. Gamins en plein air [0:03:00.00]
10. III. La vieille maison [0:09:31.07]
11. IV. Riviere sous la lune [0:03:48.03]
12. V. Danses rustiques [0:04:19.42]
Исполнители:
George Enescu Bucharest Philharmonic
Christian Mandeal

LOG EAC

Exact Audio Copy V1.0 beta 3 from 29. August 2011
EAC extraction logfile from 5. August 2014, 23:02
George Enescu / Orchestral Works Vol. 4 (Cristian Mandea)
Used drive : TSSTcorpCDDVDW SH-S223C Adapter: 2 ID: 1
Read mode : SecureUtilize accurate stream : YesDefeat audio cache : YesMake use of C2 pointers : No
Read offset correction : 697Overread into Lead-In and Lead-Out : NoFill up missing offset samples with silence : YesDelete leading and trailing silent blocks : NoNull samples used in CRC calculations : YesUsed interface : Native Win32 interface for Win NT & 2000
Used output format : User Defined EncoderSelected bitrate : 1024 kBit/sQuality : HighAdd ID3 tag : NoCommand line compressor : C:\Program Files (x86)\Exact Audio Copy\FLAC\FLAC.EXEAdditional command line options : -V -0 -T "COMMENT=Ripped by Tapaz9" -T "artist=%artist%" -T "title=%title%" -T "album=%albumtitle%" -T "date=%year%" -T "tracknumber=%tracknr%" -T "genre=%genre%" %source%
TOC of the extracted CD
Track | Start | Length | Start sector | End sector---------------------------------------------------------1 | 0:00.00 | 13:28.57 | 0 | 606562 | 13:28.57 | 4:37.05 | 60657 | 814363 | 18:05.62 | 4:33.65 | 81437 | 1019764 | 22:39.52 | 2:25.00 | 101977 | 1128515 | 25:04.52 | 2:16.65 | 112852 | 1231166 | 27:21.42 | 5:32.00 | 123117 | 1480167 | 32:53.42 | 9:44.10 | 148017 | 1918268 | 42:37.52 | 5:17.58 | 191827 | 2156599 | 47:55.35 | 3:00.00 | 215660 | 22915910 | 50:55.35 | 9:31.07 | 229160 | 27199111 | 60:26.42 | 3:48.03 | 271992 | 28909412 | 64:14.45 | 4:19.42 | 289095 | 308561
Range status and errors
Selected range
Filename F:\Musique\Enescu, George\Enescu_OrchestralWorks_ArteNova_Vol4\George Enescu - Orchestral Works Vol. 4 (Cristian Mandea).wav
Peak level 96.4 %Extraction speed 14.2 XRange quality 99.9 %Copy CRC AB96F7C8Copy OK
No errors occurred
End of status report
==== Log checksum 636710A068960CCAC803E04A6D3BFDC708BC66AC69B28CFB2FB3A0FEDDF7F9C6 ====



Показать сообщения:    

Текущее время: 05-Дек 03:31

Часовой пояс: UTC + 3


Вы не можете начинать темы
Вы не можете отвечать на сообщения
Вы не можете редактировать свои сообщения
Вы не можете удалять свои сообщения
Вы не можете голосовать в опросах
Вы не можете прикреплять файлы к сообщениям
Вы не можете скачивать файлы