(Classical) Kurt Atterberg - Complete Symphonies (Symphonies 1-9, Alven) [5CDs] (Radio-Sinfonie-Orchester Frankfurt, NDR Radiophilharmonie, Radio-Sinfonieorchester Stuttgart des SWR, Ari Rasilainen) - 2005, FLAC (tracks+.cue) lossless


 

[Цитировать]

Kurt Atterberg - Complete Symphonies (Symphonies 1-9, Alven)
Жанр: Classical
Год издания диска: 2005
Издатель (лейбл): CPO
Дата записи:
Аудиокодек: FLAC
Тип рипа: tracks+.cue
Битрейт аудио: lossless
Продолжительность: 5CDs, 05:28:59
Источник: скачано из сети
Наличие сканов в содержимом раздачи: да
Исполнители:
Radio-Sinfonie-Orchester Frankfurt (CD1,2)
NDR Radiophilharmonie (CD3,5)
Radio-Sinfonieorchester Stuttgart des SWR (CD4)
Ari Rasilainen

CD1: Symphonies 1 and 4 - 1999

Номер по каталогу: 999 639-2
Продолжительность: 61:53
Исполнители:
Radio-Sinfonie-Orchester Frankfurt
Ari Rasilainen
Треклист:
Symphony No. 1 in B, Op 3
1. Allegro con fuoco
2. Adagio
3. Presto
4. Adagio - Allegro energico
Symphony No. 4 in G, Op 14, 'Sinfonia Piccola'
5. Con forza
6. Andante
7. Scherzo
8. Finale. Rondo

LOG EAC

Exact Audio Copy V1.0 beta 3 from 29. August 2011
EAC extraction logfile from 25. February 2012, 14:28
Radio-Sinfonie-Orchester Frankfurt, Ari Rasilainen / Symphonies 1 & 4
Used drive : HL-DT-STDVDRAM GSA-H10N Adapter: 1 ID: 0
Read mode : SecureUtilize accurate stream : YesDefeat audio cache : YesMake use of C2 pointers : No
Read offset correction : 667Overread into Lead-In and Lead-Out : NoFill up missing offset samples with silence : YesDelete leading and trailing silent blocks : NoNull samples used in CRC calculations : YesUsed interface : Native Win32 interface for Win NT & 2000Gap handling : Appended to previous track
Used output format : User Defined EncoderSelected bitrate : 768 kBit/sQuality : HighAdd ID3 tag : NoCommand line compressor : C:\Program Files (x86)\Exact Audio Copy\Flac\flac.exeAdditional command line options : -8 -V -T "ARTIST=%artist%" -T "TITLE=%title%" -T "ALBUM=%albumtitle%" -T "DATE=%year%" -T "TRACKNUMBER=%tracknr%" -T "GENRE=%genre%" -T
"PERFORMER=%albuminterpret%" -T "COMPOSER=%composer%" %haslyrics%--tag-from-file=LYRICS="%lyricsfile%"%haslyrics% -T "ALBUMARTIST=%albumartist%" -T "DISCNUMBER=%cdnumber%" -T
"TOTALDISCS=%totalcds%" -T "TOTALTRACKS=%numtracks%" -T "COMMENT=%comment%" %source% -o %dest%
TOC of the extracted CD
Track | Start | Length | Start sector | End sector --------------------------------------------------------- 1 | 0:00.00 | 10:49.03 | 0 | 48677 2 | 10:49.03 | 9:59.15 | 48678 | 93617 3 | 20:48.18 | 7:20.18 | 93618 | 126635 4 | 28:08.36 | 12:40.72 | 126636 | 183707 5 | 40:49.33 | 5:49.51 | 183708 | 209933 6 | 46:39.09 | 8:10.73 | 209934 | 246756 7 | 54:50.07 | 1:19.71 | 246757 | 252752 8 | 56:10.03 | 5:43.24 | 252753 | 278501
Track 1
Filename E:\EAC\01 - Symphony No 1 op. 3 in B minor - I. Allegro con fuoco.wav
Pre-gap length 0:00:02.00
Peak level 98.0 % Extraction speed 4.9 X Track quality 99.9 % Test CRC DAB7BB3C Copy CRC DAB7BB3C Accurately ripped (confidence 3) [F0AE319F] (AR v2) Copy OK
Track 2
Filename E:\EAC\02 - Symphony No 1 op. 3 in B minor - II. Adagio.wav
Peak level 97.9 % Extraction speed 6.3 X Track quality 100.0 % Test CRC 6AEF5A3B Copy CRC 6AEF5A3B Accurately ripped (confidence 3) [22BE5A3A] (AR v2) Copy OK
Track 3
Filename E:\EAC\03 - Symphony No 1 op. 3 in B minor - III. Presto.wav
Peak level 98.0 % Extraction speed 6.1 X Track quality 99.9 % Test CRC EADC2CA3 Copy CRC EADC2CA3 Accurately ripped (confidence 3) [0D917B76] (AR v2) Copy OK
Track 4
Filename E:\EAC\04 - Symphony No 1 op. 3 in B minor - IV. Adagio - Allegro energico.wav
Pre-gap length 0:00:00.37
Peak level 99.9 % Extraction speed 7.3 X Track quality 99.9 % Test CRC 77B3F4D9 Copy CRC 77B3F4D9 Accurately ripped (confidence 3) [CEB2EB4D] (AR v2) Copy OK
Track 5
Filename E:\EAC\05 - Symphony No 4 op. 14 in G minor - I. Con forza.wav
Pre-gap length 0:00:00.85
Peak level 98.0 % Extraction speed 8.0 X Track quality 100.0 % Test CRC 659E493A Copy CRC 659E493A Accurately ripped (confidence 3) [224DB156] (AR v2) Copy OK
Track 6
Filename E:\EAC\06 - Symphony No 4 op. 14 in G minor - II. Andante.wav
Peak level 40.8 % Extraction speed 8.5 X Track quality 100.0 % Test CRC 05B8BBAB Copy CRC 05B8BBAB Accurately ripped (confidence 3) [1F7CF752] (AR v2) Copy OK
Track 7
Filename E:\EAC\07 - Symphony No 4 op. 14 in G minor - III. Scherzo.wav
Peak level 61.5 % Extraction speed 6.0 X Track quality 100.0 % Test CRC B74E01AF Copy CRC B74E01AF Accurately ripped (confidence 3) [D029674A] (AR v2) Copy OK
Track 8
Filename E:\EAC\08 - Symphony No 4 op. 14 in G minor - IV. Finale. Rondo.wav
Peak level 98.0 % Extraction speed 7.8 X Track quality 99.9 % Test CRC 8DBC9307 Copy CRC 8DBC9307 Accurately ripped (confidence 3) [9BDA2D64] (AR v2) Copy OK
All tracks accurately ripped
No errors occurred
End of status report
---- CUETools DB Plugin V2.1.3
[CTDB TOCID: kSBy2zuQ9tfz83VzjvhFOdDJtoc-] disk not present in database, Submit result: kSBy2zuQ9tfz83VzjvhFOdDJtoc- has been uploaded
==== Log checksum 6A34B3E85BBA3BCD52523E9182128F20CA8C10F3C6AB8FA90132F01A115151C9 ====

LOG (.CUE):

REM GENRE ClassicalREM DATE 1999REM DISCID 5C0E8108REM COMMENT "ExactAudioCopy v1.0b3"PERFORMER "Radio-Sinfonie-Orchester Frankfurt, Ari Rasilainen"TITLE "Symphonies 1 & 4"FILE "01 - Symphony No 1 op. 3 in B minor - I. Allegro con fuoco.wav" WAVE TRACK 01 AUDIO TITLE "Symphony No 1 op. 3 in B minor - I. Allegro con fuoco" PERFORMER "Radio-Sinfonie-Orchester Frankfurt, Ari Rasilainen" INDEX 01 00:00:00FILE "02 - Symphony No 1 op. 3 in B minor - II. Adagio.wav" WAVE TRACK 02 AUDIO TITLE "Symphony No 1 op. 3 in B minor - II. Adagio" PERFORMER "Radio-Sinfonie-Orchester Frankfurt, Ari Rasilainen" INDEX 01 00:00:00FILE "03 - Symphony No 1 op. 3 in B minor - III. Presto.wav" WAVE TRACK 03 AUDIO TITLE "Symphony No 1 op. 3 in B minor - III. Presto" PERFORMER "Radio-Sinfonie-Orchester Frankfurt, Ari Rasilainen" INDEX 01 00:00:00 TRACK 04 AUDIO TITLE "Symphony No 1 op. 3 in B minor - IV. Adagio - Allegro energico" PERFORMER "Radio-Sinfonie-Orchester Frankfurt, Ari Rasilainen" INDEX 00 07:19:65FILE "04 - Symphony No 1 op. 3 in B minor - IV. Adagio - Allegro energico.wav" WAVE INDEX 01 00:00:00 TRACK 05 AUDIO TITLE "Symphony No 4 op. 14 in G minor - I. Con forza" PERFORMER "Radio-Sinfonie-Orchester Frankfurt, Ari Rasilainen" INDEX 00 12:40:08FILE "05 - Symphony No 4 op. 14 in G minor - I. Con forza.wav" WAVE INDEX 01 00:00:00FILE "06 - Symphony No 4 op. 14 in G minor - II. Andante.wav" WAVE TRACK 06 AUDIO TITLE "Symphony No 4 op. 14 in G minor - II. Andante" PERFORMER "Radio-Sinfonie-Orchester Frankfurt, Ari Rasilainen" INDEX 01 00:00:00FILE "07 - Symphony No 4 op. 14 in G minor - III. Scherzo.wav" WAVE TRACK 07 AUDIO TITLE "Symphony No 4 op. 14 in G minor - III. Scherzo" PERFORMER "Radio-Sinfonie-Orchester Frankfurt, Ari Rasilainen" INDEX 01 00:00:00FILE "08 - Symphony No 4 op. 14 in G minor - IV. Finale. Rondo.wav" WAVE TRACK 08 AUDIO TITLE "Symphony No 4 op. 14 in G minor - IV. Finale. Rondo" PERFORMER "Radio-Sinfonie-Orchester Frankfurt, Ari Rasilainen" INDEX 01 00:00:00

CD2: Symphonies 2 and 5 - 2002

Номер по каталогу: 999 565-2
Продолжительность: 01:15:32
Исполнители:
Radio-Sinfonie-Orchester Frankfurt
Ari Rasilainen
Треклист:
Symphony No. 2 in F, Op 6
1. Allegro con moto - Maestoso - Largamente
2. Adagio - Presto - Adagio - Presto - Adagio
3. Allegro con fuoco - Tranquillo - Adagio - Tempo 1 - Maestoso
Symphony No. 5 in D minor, Op 20, 'Sinfonia Funebre'
4. Pesante Allegro
5. Lento
6. Allegro molto - Tempo di Valse

LOG EAC

Exact Audio Copy V1.0 beta 3 from 29. August 2011
EAC extraction logfile from 24. February 2012, 4:02
Radio-Sinfonie-Orchester Frankfurt, Ari Rasilainen / Symphonies 2 & 5
Used drive : HL-DT-STDVDRAM GSA-H10N Adapter: 1 ID: 0
Read mode : SecureUtilize accurate stream : YesDefeat audio cache : YesMake use of C2 pointers : No
Read offset correction : 667Overread into Lead-In and Lead-Out : NoFill up missing offset samples with silence : YesDelete leading and trailing silent blocks : NoNull samples used in CRC calculations : YesUsed interface : Native Win32 interface for Win NT & 2000Gap handling : Appended to previous track
Used output format : User Defined EncoderSelected bitrate : 768 kBit/sQuality : HighAdd ID3 tag : NoCommand line compressor : C:\Program Files (x86)\Exact Audio Copy\Flac\flac.exeAdditional command line options : -8 -V -T "ARTIST=%artist%" -T "TITLE=%title%" -T "ALBUM=%albumtitle%" -T "DATE=%year%" -T "TRACKNUMBER=%tracknr%" -T "GENRE=%genre%" -T
"PERFORMER=%albuminterpret%" -T "COMPOSER=%composer%" %haslyrics%--tag-from-file=LYRICS="%lyricsfile%"%haslyrics% -T "ALBUMARTIST=%albumartist%" -T "DISCNUMBER=%cdnumber%" -T
"TOTALDISCS=%totalcds%" -T "TOTALTRACKS=%numtracks%" -T "COMMENT=%comment%" %source% -o %dest%
TOC of the extracted CD
Track | Start | Length | Start sector | End sector --------------------------------------------------------- 1 | 0:00.00 | 12:51.18 | 0 | 57842 2 | 12:51.18 | 15:55.66 | 57843 | 129533 3 | 28:47.09 | 12:19.19 | 129534 | 184977 4 | 41:06.28 | 9:10.35 | 184978 | 226262 5 | 50:16.63 | 9:51.51 | 226263 | 270638 6 | 60:08.39 | 15:23.48 | 270639 | 339911
Track 1
Filename E:\EAC\01 - Symphony No. 2 op. 6 in F major - I. Allegro con moto - Maestoso - Largamente.wav
Pre-gap length 0:00:02.00
Peak level 99.7 % Extraction speed 5.1 X Track quality 99.9 % Test CRC B2E1B97C Copy CRC B2E1B97C Accurately ripped (confidence 2) [EA3D6E8E] (AR v2) Copy OK
Track 2
Filename E:\EAC\02 - II. Adagio - Presto - Adagio - Presto - Adagio.wav
Peak level 99.6 % Extraction speed 6.8 X Track quality 100.0 % Test CRC 317A93AA Copy CRC 317A93AA Accurately ripped (confidence 2) [B1A312DC] (AR v2) Copy OK
Track 3
Filename E:\EAC\03 - III. Allegro con fuoco - Tranquilla - Adagio - Tempo I - Maestoso.wav
Peak level 99.8 % Extraction speed 7.8 X Track quality 100.0 % Test CRC 13D8FD0B Copy CRC 13D8FD0B Accurately ripped (confidence 2) [DCC8A252] (AR v2) Copy OK
Track 4
Filename E:\EAC\04 - Symphony No. 5 op. 20 in D minor 'Sinfonia Funebre' - I. Pesante Alegro.wav
Pre-gap length 0:00:07.46
Peak level 98.1 % Extraction speed 7.6 X Track quality 99.9 % Test CRC B365280E Copy CRC B365280E Accurately ripped (confidence 2) [A8A619AD] (AR v2) Copy OK
Track 5
Filename E:\EAC\05 - II. Lento.wav
Peak level 98.0 % Extraction speed 9.0 X Track quality 100.0 % Test CRC ADFA3CC1 Copy CRC ADFA3CC1 Accurately ripped (confidence 2) [357D62E3] (AR v2) Copy OK
Track 6
Filename E:\EAC\06 - III. Allegro molto - Tempo di Valse.wav
Peak level 99.4 % Extraction speed 9.3 X Track quality 99.9 % Test CRC 0FD21B1B Copy CRC 0FD21B1B Accurately ripped (confidence 8) [E7C548DB] (AR v1) Copy OK
All tracks accurately ripped
No errors occurred
End of status report
---- CUETools DB Plugin V2.1.3
[CTDB TOCID: jDvPqjeRvCIR7IN02wn8vlZ0XEQ-] disk not present in database, Submit result: jDvPqjeRvCIR7IN02wn8vlZ0XEQ- has been uploaded
==== Log checksum BE986A9B2B985DCA96D1CA10270C7A0AD7F7B8A909E4257B896458EF601290D6 ====

LOG (.CUE):

REM GENRE classicalREM DATE 2002REM DISCID 5011B406REM COMMENT "ExactAudioCopy v1.0b3"PERFORMER "Radio-Sinfonie-Orchester Frankfurt, Ari Rasilainen"TITLE "Symphonies 2 & 5"FILE "01 - Symphony No. 2 op. 6 in F major - I. Allegro con moto - Maestoso - Largamente.wav" WAVE TRACK 01 AUDIO TITLE "Symphony No. 2 op. 6 in F major - I. Allegro con moto - Maestoso - Largamente" PERFORMER "Radio-Sinfonie-Orchester Frankfurt, Ari Rasilainen" INDEX 01 00:00:00FILE "02 - II. Adagio - Presto - Adagio - Presto - Adagio.wav" WAVE TRACK 02 AUDIO TITLE "II. Adagio - Presto - Adagio - Presto - Adagio" PERFORMER "Radio-Sinfonie-Orchester Frankfurt, Ari Rasilainen" INDEX 01 00:00:00FILE "03 - III. Allegro con fuoco - Tranquilla - Adagio - Tempo I - Maestoso.wav" WAVE TRACK 03 AUDIO TITLE "III. Allegro con fuoco - Tranquilla - Adagio - Tempo I - Maestoso" PERFORMER "Radio-Sinfonie-Orchester Frankfurt, Ari Rasilainen" INDEX 01 00:00:00 TRACK 04 AUDIO TITLE "Symphony No. 5 op. 20 in D minor 'Sinfonia Funebre' - I. Pesante Alegro" PERFORMER "Radio-Sinfonie-Orchester Frankfurt, Ari Rasilainen" INDEX 00 12:11:59FILE "04 - Symphony No. 5 op. 20 in D minor 'Sinfonia Funebre' - I. Pesante Alegro.wav" WAVE INDEX 01 00:00:00FILE "05 - II. Lento.wav" WAVE TRACK 05 AUDIO TITLE "II. Lento" PERFORMER "Radio-Sinfonie-Orchester Frankfurt, Ari Rasilainen" INDEX 01 00:00:00FILE "06 - III. Allegro molto - Tempo di Valse.wav" WAVE TRACK 06 AUDIO TITLE "III. Allegro molto - Tempo di Valse" PERFORMER "Radio-Sinfonie-Orchester Frankfurt, Ari Rasilainen" INDEX 01 00:00:00

CD3: Symphonies 3 and 6 - 1999

Год издания диска: 1999
Номер по каталогу: 999 640-2
Продолжительность: 01:08:19
Исполнители:
NDR Radiophilharmonie
Ari Rasilainen
Треклист:
Symphony No. 3 in D major, Op 10 'West Coast Pictures' (1916)
1. Sun Smoke. Lento
2. Storm. Con fuoco
3. Summer Night. Adagio - Molto vivace
Symphony No. 6 in C, Op 31, 'Dollar Symphony'
4. Adagio
5. Vivace

LOG EAC

Exact Audio Copy V1.0 beta 3 from 29. August 2011
EAC extraction logfile from 24. February 2012, 18:56
Radio-Philharmonie Hannover des NDR, Ari Rasilainen / Symphonies 3 & 6
Used drive : HL-DT-STDVDRAM GSA-H10N Adapter: 1 ID: 0
Read mode : SecureUtilize accurate stream : YesDefeat audio cache : YesMake use of C2 pointers : No
Read offset correction : 667Overread into Lead-In and Lead-Out : NoFill up missing offset samples with silence : YesDelete leading and trailing silent blocks : NoNull samples used in CRC calculations : YesUsed interface : Native Win32 interface for Win NT & 2000Gap handling : Appended to previous track
Used output format : User Defined EncoderSelected bitrate : 768 kBit/sQuality : HighAdd ID3 tag : NoCommand line compressor : C:\Program Files (x86)\Exact Audio Copy\Flac\flac.exeAdditional command line options : -8 -V -T "ARTIST=%artist%" -T "TITLE=%title%" -T "ALBUM=%albumtitle%" -T "DATE=%year%" -T "TRACKNUMBER=%tracknr%" -T "GENRE=%genre%" -T
"PERFORMER=%albuminterpret%" -T "COMPOSER=%composer%" %haslyrics%--tag-from-file=LYRICS="%lyricsfile%"%haslyrics% -T "ALBUMARTIST=%albumartist%" -T "DISCNUMBER=%cdnumber%" -T
"TOTALDISCS=%totalcds%" -T "TOTALTRACKS=%numtracks%" -T "COMMENT=%comment%" %source% -o %dest%
TOC of the extracted CD
Track | Start | Length | Start sector | End sector --------------------------------------------------------- 1 | 0:00.00 | 8:29.05 | 0 | 38179 2 | 8:29.05 | 10:37.10 | 38180 | 85964 3 | 19:06.15 | 18:06.32 | 85965 | 167446 4 | 37:12.47 | 9:08.38 | 167447 | 208584 5 | 46:21.10 | 12:57.57 | 208585 | 266916 6 | 59:18.67 | 9:00.00 | 266917 | 307416
Track 1
Filename E:\EAC\01 - Symphony No 3 op. 10 in D major - I. Soldis - Sun Smoke- Lento.wav
Pre-gap length 0:00:02.00
Peak level 86.0 % Extraction speed 5.1 X Track quality 100.0 % Test CRC BCFD6EC9 Copy CRC BCFD6EC9 Accurately ripped (confidence 4) [9EFB3670] (AR v2) Copy OK
Track 2
Filename E:\EAC\02 - Symphony No 3 op. 10 in D major - II. Storm- Con fuoco.wav
Peak level 93.8 % Extraction speed 5.7 X Track quality 99.9 % Test CRC 6784480C Copy CRC 6784480C Accurately ripped (confidence 4) [C0493C09] (AR v2) Copy OK
Track 3
Filename E:\EAC\03 - Symphony No 3 op. 10 in D major - III. Sommarnatt - Summer Night- Adagio - Molto vivace.wav
Peak level 99.9 % Extraction speed 7.5 X Track quality 100.0 % Test CRC D525F6B1 Copy CRC D525F6B1 Accurately ripped (confidence 4) [4807472C] (AR v2) Copy OK
Track 4
Filename E:\EAC\04 - Symphony No 6 op. 31 in C major - I. Moderato - piu vivo.wav
Pre-gap length 0:00:08.00
Peak level 100.0 % Extraction speed 8.1 X Track quality 100.0 % Test CRC C75FA471 Copy CRC C75FA471 Accurately ripped (confidence 4) [2158618F] (AR v2) Copy OK
Track 5
Filename E:\EAC\05 - Symphony No 6 op. 31 in C major - II. Adagio.wav
Peak level 89.1 % Extraction speed 8.9 X Track quality 100.0 % Test CRC 9FFBE080 Copy CRC 9FFBE080 Accurately ripped (confidence 4) [799CF3CF] (AR v2) Copy OK
Track 6
Filename E:\EAC\06 - Symphony No 6 op. 31 in C major - III. Vivace.wav
Peak level 100.0 % Extraction speed 9.4 X Track quality 100.0 % Test CRC 2A877A5D Copy CRC 2A877A5D Accurately ripped (confidence 4) [AADF73BE] (AR v2) Copy OK
All tracks accurately ripped
No errors occurred
End of status report
---- CUETools DB Plugin V2.1.3
[CTDB TOCID: JnOYyuqKs7Dp.K0PrRoboqwB.8E-] found, Submit result: JnOYyuqKs7Dp.K0PrRoboqwB.8E- has been confirmed[67869c6f] (2/3) Accurately ripped[a3329493] (1/3) Differs in 1 samples @06:38:30You can use CUETools to repair this rip.
==== Log checksum A9293CDDB83CB3DB2FA18E7632FE5758040884DDDCA9DB85BF2734A19B879090 ====

LOG (.CUE):

REM GENRE ClassicalREM DATE 1999REM DISCID 44100206REM COMMENT "ExactAudioCopy v1.0b3"PERFORMER "Radio-Philharmonie Hannover des NDR, Ari Rasilainen"TITLE "Symphonies 3 & 6"FILE "01 - Symphony No 3 op. 10 in D major - I. Soldis - Sun Smoke- Lento.wav" WAVE TRACK 01 AUDIO TITLE "Symphony No 3 op. 10 in D major - I. Soldis - Sun Smoke: Lento" PERFORMER "Radio-Philharmonie Hannover des NDR, Ari Rasilainen" INDEX 01 00:00:00FILE "02 - Symphony No 3 op. 10 in D major - II. Storm- Con fuoco.wav" WAVE TRACK 02 AUDIO TITLE "Symphony No 3 op. 10 in D major - II. Storm: Con fuoco" PERFORMER "Radio-Philharmonie Hannover des NDR, Ari Rasilainen" INDEX 01 00:00:00FILE "03 - Symphony No 3 op. 10 in D major - III. Sommarnatt - Summer Night- Adagio - Molto vivace.wav" WAVE TRACK 03 AUDIO TITLE "Symphony No 3 op. 10 in D major - III. Sommarnatt - Summer Night: Adagio - Mo..." PERFORMER "Radio-Philharmonie Hannover des NDR, Ari Rasilainen" INDEX 01 00:00:00 TRACK 04 AUDIO TITLE "Symphony No 6 op. 31 in C major - I. Moderato - piu vivo" PERFORMER "Radio-Philharmonie Hannover des NDR, Ari Rasilainen" INDEX 00 17:58:32FILE "04 - Symphony No 6 op. 31 in C major - I. Moderato - piu vivo.wav" WAVE INDEX 01 00:00:00FILE "05 - Symphony No 6 op. 31 in C major - II. Adagio.wav" WAVE TRACK 05 AUDIO TITLE "Symphony No 6 op. 31 in C major - II. Adagio" PERFORMER "Radio-Philharmonie Hannover des NDR, Ari Rasilainen" INDEX 01 00:00:00FILE "06 - Symphony No 6 op. 31 in C major - III. Vivace.wav" WAVE TRACK 06 AUDIO TITLE "Symphony No 6 op. 31 in C major - III. Vivace" PERFORMER "Radio-Philharmonie Hannover des NDR, Ari Rasilainen" INDEX 01 00:00:00

CD4: Symphonies 7 and 8 - 2001

Номер по каталогу: 999 641-2
Продолжительность: 01:02:42
Исполнители:
Radio-Sinfonieorchester Stuttgart des SWR
Ari Rasilainen
Треклист:
Symphony No. 7 ('Sinfonia Romantica'), Op. 45
1. Drammatico
2. Semplice
3. Feroce
Symphony No. 8, Op. 48
4. Largo
5. Adagio
6. Molto vivo
7. Con moto

LOG EAC

Exact Audio Copy V1.0 beta 3 from 29. August 2011
EAC extraction logfile from 24. February 2012, 20:25
SWR Radio-Sinfonieorchester Stuttgart. Ari Rasilainen / Symphonies 7 & 8
Used drive : HL-DT-STDVDRAM GSA-H10N Adapter: 1 ID: 0
Read mode : SecureUtilize accurate stream : YesDefeat audio cache : YesMake use of C2 pointers : No
Read offset correction : 667Overread into Lead-In and Lead-Out : NoFill up missing offset samples with silence : YesDelete leading and trailing silent blocks : NoNull samples used in CRC calculations : YesUsed interface : Native Win32 interface for Win NT & 2000Gap handling : Appended to previous track
Used output format : User Defined EncoderSelected bitrate : 768 kBit/sQuality : HighAdd ID3 tag : NoCommand line compressor : C:\Program Files (x86)\Exact Audio Copy\Flac\flac.exeAdditional command line options : -8 -V -T "ARTIST=%artist%" -T "TITLE=%title%" -T "ALBUM=%albumtitle%" -T "DATE=%year%" -T "TRACKNUMBER=%tracknr%" -T "GENRE=%genre%" -T
"PERFORMER=%albuminterpret%" -T "COMPOSER=%composer%" %haslyrics%--tag-from-file=LYRICS="%lyricsfile%"%haslyrics% -T "ALBUMARTIST=%albumartist%" -T "DISCNUMBER=%cdnumber%" -T
"TOTALDISCS=%totalcds%" -T "TOTALTRACKS=%numtracks%" -T "COMMENT=%comment%" %source% -o %dest%
TOC of the extracted CD
Track | Start | Length | Start sector | End sector --------------------------------------------------------- 1 | 0:00.00 | 10:24.67 | 0 | 46866 2 | 10:24.67 | 11:31.40 | 46867 | 98731 3 | 21:56.32 | 7:13.30 | 98732 | 131236 4 | 29:09.62 | 9:03.10 | 131237 | 171971 5 | 38:12.72 | 9:55.10 | 171972 | 216606 6 | 48:08.07 | 5:15.05 | 216607 | 240236 7 | 53:23.12 | 9:18.48 | 240237 | 282134
Track 1
Filename E:\EAC\01 - Symphony No. 7 op. 45 - I. Drammatico.wav
Pre-gap length 0:00:02.00
Peak level 100.0 % Extraction speed 5.3 X Track quality 100.0 % Test CRC 2DA99B7D Copy CRC 2DA99B7D Accurately ripped (confidence 2) [DAAD2BDD] (AR v2) Copy OK
Track 2
Filename E:\EAC\02 - Symphony No. 7 op. 45 - II. Semplice.wav
Peak level 98.0 % Extraction speed 5.9 X Track quality 99.9 % Test CRC 93330CD6 Copy CRC 93330CD6 Accurately ripped (confidence 2) [40B32071] (AR v2) Copy OK
Track 3
Filename E:\EAC\03 - Symphony No. 7 op. 45 - III. Feroce.wav
Peak level 100.0 % Extraction speed 6.9 X Track quality 100.0 % Test CRC 64FB0AED Copy CRC 64FB0AED Accurately ripped (confidence 2) [1004BD6C] (AR v2) Copy OK
Track 4
Filename E:\EAC\04 - Symphony No. 8 op. 48 - I. Largo.wav
Pre-gap length 0:00:13.26
Peak level 100.0 % Extraction speed 6.9 X Track quality 99.9 % Test CRC 98988E43 Copy CRC 98988E43 Accurately ripped (confidence 2) [E622333B] (AR v2) Copy OK
Track 5
Filename E:\EAC\05 - Symphony No. 8 op. 48 - II. Adagio.wav
Peak level 97.9 % Extraction speed 8.1 X Track quality 100.0 % Test CRC DF5872CF Copy CRC DF5872CF Accurately ripped (confidence 2) [B36E2F7F] (AR v2) Copy OK
Track 6
Filename E:\EAC\06 - Symphony No. 8 op. 48 - III. Molto vivo.wav
Peak level 100.0 % Extraction speed 7.0 X Track quality 99.9 % Test CRC D0543265 Copy CRC D0543265 Accurately ripped (confidence 2) [FAADBF52] (AR v2) Copy OK
Track 7
Filename E:\EAC\07 - Symphony No. 8 op. 48 - IV. Con moto.wav
Peak level 100.0 % Extraction speed 9.1 X Track quality 100.0 % Test CRC 9267CB8C Copy CRC 9267CB8C Accurately ripped (confidence 2) [D1319683] (AR v2) Copy OK
All tracks accurately ripped
No errors occurred
End of status report
---- CUETools DB Plugin V2.1.3
[CTDB TOCID: bucXPpbg6QQByJOxRiD7krs.QdU-] found, Submit result: bucXPpbg6QQByJOxRiD7krs.QdU- has been confirmed[6dba018f] (3/3) Accurately ripped
==== Log checksum B7FC76BEF608AE65459289D913258F6577863842806C43F07F486B6BE11D6AFA ====

LOG (.CUE):

REM GENRE ClassicalREM DATE 2001REM DISCID 590EB107REM COMMENT "ExactAudioCopy v1.0b3"PERFORMER "SWR Radio-Sinfonieorchester Stuttgart. Ari Rasilainen"TITLE "Symphonies 7 & 8"FILE "01 - Symphony No. 7 op. 45 - I. Drammatico.wav" WAVE TRACK 01 AUDIO TITLE "Symphony No. 7 op. 45 - I. Drammatico" PERFORMER "SWR Radio-Sinfonieorchester Stuttgart. Ari Rasilainen" INDEX 01 00:00:00FILE "02 - Symphony No. 7 op. 45 - II. Semplice.wav" WAVE TRACK 02 AUDIO TITLE "Symphony No. 7 op. 45 - II. Semplice" PERFORMER "SWR Radio-Sinfonieorchester Stuttgart. Ari Rasilainen" INDEX 01 00:00:00FILE "03 - Symphony No. 7 op. 45 - III. Feroce.wav" WAVE TRACK 03 AUDIO TITLE "Symphony No. 7 op. 45 - III. Feroce" PERFORMER "SWR Radio-Sinfonieorchester Stuttgart. Ari Rasilainen" INDEX 01 00:00:00 TRACK 04 AUDIO TITLE "Symphony No. 8 op. 48 - I. Largo" PERFORMER "SWR Radio-Sinfonieorchester Stuttgart. Ari Rasilainen" INDEX 00 07:00:10FILE "04 - Symphony No. 8 op. 48 - I. Largo.wav" WAVE INDEX 01 00:00:00FILE "05 - Symphony No. 8 op. 48 - II. Adagio.wav" WAVE TRACK 05 AUDIO TITLE "Symphony No. 8 op. 48 - II. Adagio" PERFORMER "SWR Radio-Sinfonieorchester Stuttgart. Ari Rasilainen" INDEX 01 00:00:00FILE "06 - Symphony No. 8 op. 48 - III. Molto vivo.wav" WAVE TRACK 06 AUDIO TITLE "Symphony No. 8 op. 48 - III. Molto vivo" PERFORMER "SWR Radio-Sinfonieorchester Stuttgart. Ari Rasilainen" INDEX 01 00:00:00FILE "07 - Symphony No. 8 op. 48 - IV. Con moto.wav" WAVE TRACK 07 AUDIO TITLE "Symphony No. 8 op. 48 - IV. Con moto" PERFORMER "SWR Radio-Sinfonieorchester Stuttgart. Ari Rasilainen" INDEX 01 00:00:00

CD5: Symphonies 9 - 2003

Номер по каталогу: 999 913-2
Продолжительность: 00:60:35
Исполнители:
Satu Vihavainen, mezzo-soprano
Gabriel Suovanen, baritone
North German Radio Choir
Prague Chamber Choir
NDR Radiophilharmonie
Ari Rasilainen
Треклист:
Symphony No. 9, Op. 54
Kurt Atterberg: Symphony No. 9, Op. 54, "Sinfonia visionaria"
1. I. Beginning
2. II. Heid hon hette (Baritone)
3. III. Jag jattarna minns (Alto)
4. IV. Hon sag vida (Baritone)
5. V. Val vet hon (Baritone)
6. VI. Med spjut sprangde Oden (Baritone)
7. VII. Vid heta kallors (Alto, Baritone)
8. VIII. Jag ser langre fram (Alto)
9. IX. Mycket jag fattat (Alto)
10. X. Hur ar det med asar? (Baritone)
11. XI. Rym styr un ostern (Chorus)
12. XII. Nu stundar Friggas (Chorus)
13. XIII. Solen svartnar (Baritone)
Alven (The River), Op. 33
14. Durch Berge und Walder (Through Mountains and Forests)
15. Das Binnenmeer (The Great Lake)
16. Die Wasserfalle (the Waterfalls)
17. Der ruhige, breite Strom (The Quiet, Wide Stream)
18. Der Hafen (The Harbour)
19. Aussicht von den Bergen am Meere (View from the Mountains over the Sea)
20. Hinaus zum Meere (Out to the Sea)

LOG EAC

Exact Audio Copy V1.0 beta 3 from 29. August 2011
EAC extraction logfile from 25. February 2012, 13:56
NDR Radiophilharmonie, Ari Rasilainen / Symphony 9, Alven
Used drive : HL-DT-STDVDRAM GSA-H10N Adapter: 1 ID: 0
Read mode : SecureUtilize accurate stream : YesDefeat audio cache : YesMake use of C2 pointers : No
Read offset correction : 667Overread into Lead-In and Lead-Out : NoFill up missing offset samples with silence : YesDelete leading and trailing silent blocks : NoNull samples used in CRC calculations : YesUsed interface : Native Win32 interface for Win NT & 2000Gap handling : Appended to previous track
Used output format : User Defined EncoderSelected bitrate : 768 kBit/sQuality : HighAdd ID3 tag : NoCommand line compressor : C:\Program Files (x86)\Exact Audio Copy\Flac\flac.exeAdditional command line options : -8 -V -T "ARTIST=%artist%" -T "TITLE=%title%" -T "ALBUM=%albumtitle%" -T "DATE=%year%" -T "TRACKNUMBER=%tracknr%" -T "GENRE=%genre%" -T
"PERFORMER=%albuminterpret%" -T "COMPOSER=%composer%" %haslyrics%--tag-from-file=LYRICS="%lyricsfile%"%haslyrics% -T "ALBUMARTIST=%albumartist%" -T "DISCNUMBER=%cdnumber%" -T
"TOTALDISCS=%totalcds%" -T "TOTALTRACKS=%numtracks%" -T "COMMENT=%comment%" %source% -o %dest%
TOC of the extracted CD
Track | Start | Length | Start sector | End sector --------------------------------------------------------- 1 | 0:00.00 | 2:33.70 | 0 | 11544 2 | 2:33.70 | 2:45.35 | 11545 | 23954 3 | 5:19.30 | 3:26.27 | 23955 | 39431 4 | 8:45.57 | 3:14.02 | 39432 | 53983 5 | 11:59.59 | 3:05.45 | 53984 | 67903 6 | 15:05.29 | 3:37.63 | 67904 | 84241 7 | 18:43.17 | 3:07.68 | 84242 | 98334 8 | 21:51.10 | 2:15.26 | 98335 | 108485 9 | 24:06.36 | 4:02.12 | 108486 | 126647 10 | 28:08.48 | 1:51.27 | 126648 | 134999 11 | 30:00.00 | 2:06.59 | 135000 | 144508 12 | 32:06.59 | 2:24.02 | 144509 | 155310 13 | 34:30.61 | 6:13.24 | 155311 | 183309 14 | 40:44.10 | 3:55.24 | 183310 | 200958 15 | 44:39.34 | 2:53.31 | 200959 | 213964 16 | 47:32.65 | 2:01.25 | 213965 | 223064 17 | 49:34.15 | 3:58.29 | 223065 | 240943 18 | 53:32.44 | 2:13.01 | 240944 | 250919 19 | 55:45.45 | 2:26.69 | 250920 | 261938 20 | 58:12.39 | 2:23.08 | 261939 | 272671
Track 1
Filename E:\EAC\01 - Symphony No. 9 ''Visionaria'' - I. Beginning.wav
Pre-gap length 0:00:02.00
Peak level 8.0 % Extraction speed 4.0 X Track quality 100.0 % Test CRC 39C25B0B Copy CRC 39C25B0B Accurately ripped (confidence 4) [D2AA9F42] (AR v2) Copy OK
Track 2
Filename E:\EAC\02 - Symphony No. 9 ''Visionaria'' - II. Heid hon hette.wav
Peak level 16.9 % Extraction speed 4.5 X Track quality 100.0 % Test CRC 494A58CD Copy CRC 494A58CD Accurately ripped (confidence 4) [DFC35800] (AR v2) Copy OK
Track 3
Filename E:\EAC\03 - Symphony No. 9 ''Visionaria'' - III. Jag jattarna minns.wav
Peak level 68.1 % Extraction speed 4.8 X Track quality 100.0 % Test CRC 39449CD4 Copy CRC 39449CD4 Accurately ripped (confidence 4) [0F838F77] (AR v2) Copy OK
Track 4
Filename E:\EAC\04 - Symphony No. 9 ''Visionaria'' - IV. Hon sag vida.wav
Peak level 17.1 % Extraction speed 5.1 X Track quality 100.0 % Test CRC 8174017D Copy CRC 8174017D Accurately ripped (confidence 4) [83E882EE] (AR v2) Copy OK
Track 5
Filename E:\EAC\05 - Symphony No. 9 ''Visionaria'' - V. Val vet hon.wav
Peak level 51.4 % Extraction speed 4.2 X Track quality 99.9 % Test CRC D78E25C0 Copy CRC D78E25C0 Accurately ripped (confidence 4) [F657E788] (AR v2) Copy OK
Track 6
Filename E:\EAC\06 - Symphony No. 9 ''Visionaria'' - VI. Med spjut sprangde.wav
Peak level 86.5 % Extraction speed 5.8 X Track quality 100.0 % Test CRC 614426F1 Copy CRC 614426F1 Accurately ripped (confidence 4) [7E750687] (AR v2) Copy OK
Track 7
Filename E:\EAC\07 - Symphony No. 9 ''Visionaria'' - VII. Vid heta kallors.wav
Peak level 91.3 % Extraction speed 3.0 X Track quality 99.9 % Test CRC A52FA579 Copy CRC A52FA579 Accurately ripped (confidence 4) [D251379D] (AR v2) Copy OK
Track 8
Filename E:\EAC\08 - Symphony No. 9 ''Visionaria'' - VIII. Jag ser langre fram.wav
Peak level 79.7 % Extraction speed 3.3 X Track quality 100.0 % Test CRC C4045583 Copy CRC C4045583 Accurately ripped (confidence 4) [36B4A485] (AR v2) Copy OK
Track 9
Filename E:\EAC\09 - Symphony No. 9 ''Visionaria'' - IX. Myket jag fattat.wav
Peak level 92.0 % Extraction speed 3.9 X Track quality 100.0 % Test CRC E69946FC Copy CRC E69946FC Accurately ripped (confidence 4) [B66A916B] (AR v2) Copy OK
Track 10
Filename E:\EAC\10 - Symphony No. 9 ''Visionaria'' - X. Hur ar det med asar.wav
Peak level 85.2 % Extraction speed 3.5 X Track quality 100.0 % Test CRC 1CC37BE3 Copy CRC 1CC37BE3 Accurately ripped (confidence 4) [30158CB2] (AR v2) Copy OK
Track 11
Filename E:\EAC\11 - Symphony No. 9 ''Visionaria'' - XI. Rym styr un ostern.wav
Peak level 91.6 % Extraction speed 2.9 X Track quality 99.9 % Test CRC D2849FA9 Copy CRC D2849FA9 Accurately ripped (confidence 4) [274FAF0B] (AR v2) Copy OK
Track 12
Filename E:\EAC\12 - Symphony No. 9 ''Visionaria'' - XII. Nu stundar Friggas.wav
Peak level 85.5 % Extraction speed 3.8 X Track quality 100.0 % Test CRC 91E7D043 Copy CRC 91E7D043 Accurately ripped (confidence 4) [1C5C1242] (AR v2) Copy OK
Track 13
Filename E:\EAC\13 - Symphony No. 9 ''Visionaria'' - XIII. Solen svatnar.wav
Peak level 27.0 % Extraction speed 4.6 X Track quality 100.0 % Test CRC 56911F55 Copy CRC 56911F55 Accurately ripped (confidence 4) [3E48FEB9] (AR v2) Copy OK
Track 14
Filename E:\EAC\14 - Alven (The River) - I. Through mountains and ferests.wav
Peak level 91.7 % Extraction speed 4.5 X Track quality 100.0 % Test CRC AF0CC5D3 Copy CRC AF0CC5D3 Accurately ripped (confidence 4) [880A3449] (AR v2) Copy OK
Track 15
Filename E:\EAC\15 - Alven (The River) - II. The great lake.wav
Peak level 27.5 % Extraction speed 4.5 X Track quality 100.0 % Test CRC EE5A8F34 Copy CRC EE5A8F34 Accurately ripped (confidence 4) [B0F8D65A] (AR v2) Copy OK
Track 16
Filename E:\EAC\16 - Alven (The River) - III. The waterfalls.wav
Peak level 77.4 % Extraction speed 4.2 X Track quality 100.0 % Test CRC 6D42C070 Copy CRC 6D42C070 Accurately ripped (confidence 4) [D2AB362D] (AR v2) Copy OK
Track 17
Filename E:\EAC\17 - Alven (The River) - IV. The quite, wide stream.wav
Peak level 65.6 % Extraction speed 4.2 X Track quality 99.9 % Test CRC 1BADFA23 Copy CRC 1BADFA23 Accurately ripped (confidence 4) [27ACC7A7] (AR v2) Copy OK
Track 18
Filename E:\EAC\18 - Alven (The River) - V. The harbour.wav
Peak level 26.6 % Extraction speed 4.3 X Track quality 100.0 % Test CRC 09CAF791 Copy CRC 09CAF791 Accurately ripped (confidence 4) [F7229DDC] (AR v2) Copy OK
Track 19
Filename E:\EAC\19 - Alven (The River) - VI. View from the mountains over the sea.wav
Peak level 47.2 % Extraction speed 4.4 X Track quality 100.0 % Test CRC B3BF1922 Copy CRC B3BF1922 Accurately ripped (confidence 4) [09D9A0F8] (AR v2) Copy OK
Track 20
Filename E:\EAC\20 - Alven (The River) - VII. Out to the sea.wav
Peak level 97.5 % Extraction speed 4.0 X Track quality 99.9 % Test CRC 1382AAA6 Copy CRC 1382AAA6 Accurately ripped (confidence 4) [65441954] (AR v2) Copy OK
All tracks accurately ripped
No errors occurred
End of status report
---- CUETools DB Plugin V2.1.3
[CTDB TOCID: zfZvhXyaqvdasZ3_4sOG5tpJRUE-] found, Submit result: zfZvhXyaqvdasZ3_4sOG5tpJRUE- has been confirmed[5e7e1a2e] (1/2) Accurately ripped[d9f23b42] (1/2) Differs in 100 samples @33:53:72-
33:53:73,33:54:15,33:54:63,33:55:55,34:15:43,34:17:09,34:22:15,34:24:31,34:24:48,34:25:06,34:25:23,34:25:39,34:25:56,34:25:73,34:26:14,34:26:47,40:55:31-40:55:32You can use CUETools to repair this rip.
==== Log checksum CE19B05F349F7976E9C0018F87D64646B5846EE0A2630942E255A62D4D9773CE ====

LOG (.CUE):

REM GENRE ClassicalREM DATE 2003REM DISCID 130E3314REM COMMENT "ExactAudioCopy v1.0b3"PERFORMER "NDR Radiophilharmonie, Ari Rasilainen"TITLE "Symphony 9, Alven"FILE "01 - Symphony No. 9 ''Visionaria'' - I. Beginning.wav" WAVE TRACK 01 AUDIO TITLE "Symphony No. 9 ''Visionaria'' - I. Beginning" PERFORMER "NDR Radiophilharmonie, Ari Rasilainen" INDEX 01 00:00:00FILE "02 - Symphony No. 9 ''Visionaria'' - II. Heid hon hette.wav" WAVE TRACK 02 AUDIO TITLE "Symphony No. 9 ''Visionaria'' - II. Heid hon hette" PERFORMER "Satu Vihavainen, Gabriel Suovanen, NDR Radiophilharmonie, Ari Rasilainen" INDEX 01 00:00:00FILE "03 - Symphony No. 9 ''Visionaria'' - III. Jag jattarna minns.wav" WAVE TRACK 03 AUDIO TITLE "Symphony No. 9 ''Visionaria'' - III. Jag jattarna minns" PERFORMER "Satu Vihavainen, NDR Chor, Prager Kammerchor, NDR Radiophilharmonie, Ari Rasi..." INDEX 01 00:00:00FILE "04 - Symphony No. 9 ''Visionaria'' - IV. Hon sag vida.wav" WAVE TRACK 04 AUDIO TITLE "Symphony No. 9 ''Visionaria'' - IV. Hon sag vida" PERFORMER "Satu Vihavainen, Gabriel Suovanen, NDR Radiophilharmonie, Ari Rasilainen" INDEX 01 00:00:00FILE "05 - Symphony No. 9 ''Visionaria'' - V. Val vet hon.wav" WAVE TRACK 05 AUDIO TITLE "Symphony No. 9 ''Visionaria'' - V. Val vet hon" PERFORMER "Gabriel Suovanen, NDR Chor, Prager Kammerchor, NDR Radiophilharmonie, Ari Ras..." INDEX 01 00:00:00FILE "06 - Symphony No. 9 ''Visionaria'' - VI. Med spjut sprangde.wav" WAVE TRACK 06 AUDIO TITLE "Symphony No. 9 ''Visionaria'' - VI. Med spjut sprangde" PERFORMER "Satu Vihavainen, Gabriel Suovanen, NDR Chor, Prager Kammerchor, NDR Radiophil..." INDEX 01 00:00:00FILE "07 - Symphony No. 9 ''Visionaria'' - VII. Vid heta kallors.wav" WAVE TRACK 07 AUDIO TITLE "Symphony No. 9 ''Visionaria'' - VII. Vid heta kallors" PERFORMER "Satu Vihavainen, Gabriel Suovanen, NDR Chor, Prager Kammerchor, NDR Radiophil..." INDEX 01 00:00:00FILE "08 - Symphony No. 9 ''Visionaria'' - VIII. Jag ser langre fram.wav" WAVE TRACK 08 AUDIO TITLE "Symphony No. 9 ''Visionaria'' - VIII. Jag ser langre fram" PERFORMER "Satu Vihavainen, Gabriel Suovanen, NDR Chor, Prager Kammerchor, NDR Radiophil..." INDEX 01 00:00:00FILE "09 - Symphony No. 9 ''Visionaria'' - IX. Myket jag fattat.wav" WAVE TRACK 09 AUDIO TITLE "Symphony No. 9 ''Visionaria'' - IX. Myket jag fattat" PERFORMER "Satu Vihavainen, NDR Chor, Prager Kammerchor, NDR Radiophilharmonie, Ari Rasi..." INDEX 01 00:00:00FILE "10 - Symphony No. 9 ''Visionaria'' - X. Hur ar det med asar.wav" WAVE TRACK 10 AUDIO TITLE "Symphony No. 9 ''Visionaria'' - X. Hur ar det med asar?" PERFORMER "Satu Vihavainen, Gabriel Suovanen, NDR Chor, Prager Kammerchor, NDR Radiophil..." INDEX 01 00:00:00FILE "11 - Symphony No. 9 ''Visionaria'' - XI. Rym styr un ostern.wav" WAVE TRACK 11 AUDIO TITLE "Symphony No. 9 ''Visionaria'' - XI. Rym styr un ostern" PERFORMER "NDR Chor, Prager Kammerchor, NDR Radiophilharmonie, Ari Rasilainen" INDEX 01 00:00:00FILE "12 - Symphony No. 9 ''Visionaria'' - XII. Nu stundar Friggas.wav" WAVE TRACK 12 AUDIO TITLE "Symphony No. 9 ''Visionaria'' - XII. Nu stundar Friggas" PERFORMER "Satu Vihavainen, NDR Chor, Prager Kammerchor, NDR Radiophilharmonie, Ari Rasi..." INDEX 01 00:00:00FILE "13 - Symphony No. 9 ''Visionaria'' - XIII. Solen svatnar.wav" WAVE TRACK 13 AUDIO TITLE "Symphony No. 9 ''Visionaria'' - XIII. Solen svatnar" PERFORMER "Satu Vihavainen, Gabriel Suovanen, NDR Radiophilharmonie, Ari Rasilainen" INDEX 01 00:00:00FILE "14 - Alven (The River) - I. Through mountains and ferests.wav" WAVE TRACK 14 AUDIO TITLE "Alven (The River) - I. Through mountains and ferests" PERFORMER "NDR Radiophilharmonie, Ari Rasilainen" INDEX 01 00:00:00FILE "15 - Alven (The River) - II. The great lake.wav" WAVE TRACK 15 AUDIO TITLE "Alven (The River) - II. The great lake" PERFORMER "NDR Radiophilharmonie, Ari Rasilainen" INDEX 01 00:00:00FILE "16 - Alven (The River) - III. The waterfalls.wav" WAVE TRACK 16 AUDIO TITLE "Alven (The River) - III. The waterfalls" PERFORMER "NDR Radiophilharmonie, Ari Rasilainen" INDEX 01 00:00:00FILE "17 - Alven (The River) - IV. The quite, wide stream.wav" WAVE TRACK 17 AUDIO TITLE "Alven (The River) - IV. The quite, wide stream" PERFORMER "NDR Radiophilharmonie, Ari Rasilainen" INDEX 01 00:00:00FILE "18 - Alven (The River) - V. The harbour.wav" WAVE TRACK 18 AUDIO TITLE "Alven (The River) - V. The harbour" PERFORMER "NDR Radiophilharmonie, Ari Rasilainen" INDEX 01 00:00:00FILE "19 - Alven (The River) - VI. View from the mountains over the sea.wav" WAVE TRACK 19 AUDIO TITLE "Alven (The River) - VI. View from the mountains over the sea" PERFORMER "NDR Radiophilharmonie, Ari Rasilainen" INDEX 01 00:00:00FILE "20 - Alven (The River) - VII. Out to the sea.wav" WAVE TRACK 20 AUDIO TITLE "Alven (The River) - VII. Out to the sea" PERFORMER "NDR Radiophilharmonie, Ari Rasilainen" INDEX 01 00:00:00



Показать сообщения:    

Текущее время: 10-Дек 21:32

Часовой пояс: UTC + 3


Вы не можете начинать темы
Вы не можете отвечать на сообщения
Вы не можете редактировать свои сообщения
Вы не можете удалять свои сообщения
Вы не можете голосовать в опросах
Вы не можете прикреплять файлы к сообщениям
Вы не можете скачивать файлы