(Classical) Karl Goldmark - Symphony No 2, Prometheus Bound, In Italien (Philharmonia Orchestra, Yondani Butt) - 1995, FLAC (image+.cue) lossless


 

[Цитировать]

Karl Goldmark - Symphony No 2, Prometheus Bound, In Italien (Philharmonia Orchestra, Yondani Butt)
Жанр: Classical
Страна-производитель диска: England
Год издания диска: 1995
Издатель (лейбл): ASV
Номер по каталогу: CD DCA 934
Дата записи: 1995
Аудиокодек: FLAC
Тип рипа: image+.cue
Битрейт аудио: lossless
Продолжительность: 01:01:12
Источник: скачано с
сайт-источник/ник/другое: WEB
Наличие сканов в содержимом раздачи: да
Треклист:
Карл Гольдмарк (1830-1915)
1. Der gefesselte Prometheus (Prometheus Bound, Прометей прикованный). Overture, Op.38 16:50
2-5. Symphony No 2 in E, Op.35
I. Allegro 10:37
II. Andante 08:51
III. Allegro quasi presto – Trio (moderato) 06:04
IV. Andante assai – allegro alla breve 06:54
6. In Italien. Overture, Op.49 11:57
Исполнители:
Philharmonia Orchestra
Yondani Butt

Лог создания рипа

Exact Audio Copy V1.0 beta 3 from 29. August 2011
EAC extraction logfile from 19. June 2012, 10:34
Goldmark, Karl / Symphonie Nr.2 E-dur, Op.35
Used drive : SONY DVD RW AD-7240S Adapter: 3 ID: 1
Read mode : SecureUtilize accurate stream : YesDefeat audio cache : YesMake use of C2 pointers : No
Read offset correction : 48Overread into Lead-In and Lead-Out : NoFill up missing offset samples with silence : YesDelete leading and trailing silent blocks : NoNull samples used in CRC calculations : YesUsed interface : Native Win32 interface for Win NT & 2000
Used output format : User Defined EncoderSelected bitrate : 768 kBit/sQuality : HighAdd ID3 tag : NoCommand line compressor : C:\Program Files\Exact Audio Copy\FLAC\FLAC.EXEAdditional command line options : -6 -V -T "ARTIST=%artist%" -T "TITLE=%title%" -T "ALBUM=%albumtitle%" -T "DATE=%year%" -T "TRACKNUMBER=%tracknr%" -T "GENRE=%genre%" -T "COMMENT=%comment%" -T "BAND=%albuminterpret%" -T "ALBUMARTIST=%albuminterpret%" -T "COMPOSER=%composer%" %haslyrics%--tag-from-file=LYRICS="%lyricsfile%"%haslyrics% -T "DISCNUMBER=%cdnumber%" -T "TOTALDISCS=%totalcds%" -T "TOTALTRACKS=%numtracks%" %hascover%--picture="%coverfile%"%hascover% %source% -o %dest%
TOC of the extracted CD
Track | Start | Length | Start sector | End sector --------------------------------------------------------- 1 | 0:00.32 | 16:55.15 | 32 | 76171 2 | 16:55.47 | 10:34.00 | 76172 | 123721 3 | 27:29.47 | 8:51.48 | 123722 | 163594 4 | 36:21.20 | 6:04.25 | 163595 | 190919 5 | 42:25.45 | 6:57.22 | 190920 | 222216 6 | 49:22.67 | 11:53.20 | 222217 | 275711
Range status and errors
Selected range
Filename C:\Users\Horacio\Desktop\HAR\Goldmark, Karl - Symphonie Nr.2 E-dur, Op.35.wav
Peak level 97.4 % Extraction speed 4.2 X Range quality 100.0 % Test CRC 620E41C7 Copy CRC 620E41C7 Copy OK
No errors occurred
AccurateRip summary
Track 1 accurately ripped (confidence 1) [17FD9363] (AR v1)Track 2 accurately ripped (confidence 1) [9C0769C7] (AR v1)Track 3 accurately ripped (confidence 1) [114B498E] (AR v1)Track 4 accurately ripped (confidence 1) [5722B4C0] (AR v1)Track 5 accurately ripped (confidence 1) [D7D2C084] (AR v1)Track 6 accurately ripped (confidence 1) [29482B3C] (AR v1)
All tracks accurately ripped
End of status report
---- CUETools DB Plugin V2.1.3
[CTDB TOCID: SDtcUoTJGyRlsIAJPvJrOKiRb0Y-] disk not present in database, Submit result: discs with pregaps not supported in this protocol version



Показать сообщения:    

Текущее время: 04-Дек 06:55

Часовой пояс: UTC + 3


Вы не можете начинать темы
Вы не можете отвечать на сообщения
Вы не можете редактировать свои сообщения
Вы не можете удалять свои сообщения
Вы не можете голосовать в опросах
Вы не можете прикреплять файлы к сообщениям
Вы не можете скачивать файлы