(Classical) Ипполитов-Иванов – Симфония № 1; «Тюркские фрагменты»; Тюркский марш / Ippolitov-Ivanov – Symphony No. 1; «Turkish Fragments»; Turkish March (Hoey) - 1984, FLAC (image+.cue) lossless


 

[Цитировать]

Ипполитов-Иванов – Симфония № 1; «Тюркские фрагменты»; Тюркский марш / Ippolitov-Ivanov – Symphony No. 1; «Turkish Fragments»; Turkish March (Hoey)
Жанр: Classical
Страна-производитель диска: Германия
Год издания диска: 1984
Издатель (лейбл): Marco Polo (Naxos)
Номер по каталогу: 8.220217
Дата записи: 21 января 1984 г., Сингапур.
Аудиокодек: FLAC
Тип рипа: image+.cue
Битрейт аудио: lossless
Продолжительность: 00:55:45
Источник: odeonmusic
Наличие сканов в содержимом раздачи: да
Треклист:
Михаил Михайлович Ипполитов-Иванов (Иванов; 1859 — 1935).
Симфония № 1 e-moll, op. 46 (1907).
01. I. Adagio. — Allegro risoluto. — Adagio [14:48].
02. II. Scherzo. Allegro. — Трио. — Tempo I [06:38].
03. III. Elegia. Larghetto [07:03].
04. IV. Finale. Allegro moderato [07:09].
«Тюркские фрагменты», сюита для оркестра (№ 3) C-dur, op. 62 (1930).
05. I. Караван. Moderato sostenuto, tempo marciale [03:18].
06. II. У становища. Allegretto grazioso. — Allegro vivo. — Allegretto grazioso (Tempo I) [05:13].
07. III. Ночью. Adagietto [02:23].
08. IV. На празднике. Allegro vivo. — Larghetto. — Tempo I. Allegro vivo. — Presto [03:19].
09. Тюркский марш для оркестра, op. 55 (1925?) [04:35].
Исполнители:
Singapore Symphony Orchestra.
Дирижер Choo Hoey.

Лог создания рипа

Exact Audio Copy V1.0 beta 3 from 29. August 2011
EAC extraction logfile from 21. January 2013, 9:34
Choo Hoey / Ippolitov-Ivanov - Symphony No.1, Turkish Fragments - Hoey
Used drive : TSSTcorpCDDVDW SH-222BB Adapter: 2 ID: 1
Read mode : SecureUtilize accurate stream : YesDefeat audio cache : YesMake use of C2 pointers : No
Read offset correction : 6Overread into Lead-In and Lead-Out : NoFill up missing offset samples with silence : YesDelete leading and trailing silent blocks : NoNull samples used in CRC calculations : YesUsed interface : Native Win32 interface for Win NT & 2000
Used output format : User Defined EncoderSelected bitrate : 1024 kBit/sQuality : HighAdd ID3 tag : NoCommand line compressor : C:\Program Files\Exact Audio Copy\Flac\flac.exeAdditional command line options : -8 -V -T "TITLE=%title%" -T "ARTIST=%artist%" -T "ALBUMARTIST=%albumartist%" -T "ALBUM=%albumtitle%" -T "DATE=%year%" -T "TRACKNUMBER=%tracknr%" -T "TRACKTOTAL=%numtracks%" -T "GENRE=%genre%" -T "COMMENT=%comment%" -T "PERFORMER=%albuminterpret%" -T "COMPOSER=%composer%" %source% -o %dest%
TOC of the extracted CD
Track | Start | Length | Start sector | End sector --------------------------------------------------------- 1 | 0:00.00 | 14:56.72 | 0 | 67271 2 | 14:56.72 | 6:46.13 | 67272 | 97734 3 | 21:43.10 | 7:12.02 | 97735 | 130136 4 | 28:55.12 | 7:20.50 | 130137 | 163186 5 | 36:15.62 | 3:26.13 | 163187 | 178649 6 | 39:42.00 | 5:22.00 | 178650 | 202799 7 | 45:04.00 | 2:31.02 | 202800 | 214126 8 | 47:35.02 | 3:29.03 | 214127 | 229804 9 | 51:04.05 | 4:41.15 | 229805 | 250894
Range status and errors
Selected range
Filename G:\Ripped general\[1623] Ippolitov-Ivanov – Symphony No.1, Turkish Fragments – Hoey\Ippolitov-Ivanov - Symphony No.1, Turkish Fragments - Hoey.wav
Peak level 100.0 % Extraction speed 6.9 X Range quality 99.9 % Test CRC D112C0AC Copy CRC D112C0AC Copy OK
No errors occurred
AccurateRip summary
Track 1 accurately ripped (confidence 1) [5FA50B99] (AR v1)Track 2 accurately ripped (confidence 1) [48BDBD1E] (AR v1)Track 3 accurately ripped (confidence 1) [5D3D50B6] (AR v1)Track 4 accurately ripped (confidence 1) [ECA627EA] (AR v1)Track 5 accurately ripped (confidence 1) [50CCB548] (AR v1)Track 6 accurately ripped (confidence 1) [5FCD9B4B] (AR v1)Track 7 accurately ripped (confidence 1) [370592A2] (AR v1)Track 8 accurately ripped (confidence 1) [500A11F0] (AR v1)Track 9 accurately ripped (confidence 1) [82E23A17] (AR v1)
All tracks accurately ripped
End of status report

Содержание индексной карты (.CUE)

REM GENRE ClassicalREM DISCID 8C0D1109REM COMMENT "ExactAudioCopy v1.0b3"PERFORMER "Choo Hoey"TITLE "IppoliIppolitov-Ivanov – Symphony No. 1; Turkish Fragments – Hoey"FILE "Ippolitov-Ivanov – Symphony No. 1; Turkish Fragments – Hoey.flac" WAVE TRACK 01 AUDIO TITLE "Symphony No. 1 in E Minor, Op. 46 - I. Adagio - Allegro risoluto" PERFORMER "Choo Hoey" INDEX 01 00:00:00 TRACK 02 AUDIO TITLE "Symphony No. 1 in E Minor, Op. 46 - II. Scherzo. Allegro" PERFORMER "Choo Hoey" INDEX 01 14:56:72 TRACK 03 AUDIO TITLE "Symphony No. 1 in E Minor, Op. 46 - III. Elegia. Larghetto" PERFORMER "Choo Hoey" INDEX 01 21:43:10 TRACK 04 AUDIO TITLE "Symphony No. 1 in E Minor, Op. 46 - IV. Finale. Allegro moderato" PERFORMER "Choo Hoey" INDEX 01 28:55:12 TRACK 05 AUDIO TITLE "Turkish Fragments, Op. 62 - I. Caravan" PERFORMER "Choo Hoey" INDEX 01 36:15:62 TRACK 06 AUDIO TITLE "Turkish Fragments, Op. 62 - II. At Rest" PERFORMER "Choo Hoey" INDEX 01 39:42:00 TRACK 07 AUDIO TITLE "Turkish Fragments, Op. 62 - III. Night" PERFORMER "Choo Hoey" INDEX 01 45:04:00 TRACK 08 AUDIO TITLE "Turkish Fragments, Op. 62 - IV. Festival" PERFORMER "Choo Hoey" INDEX 01 47:35:02 TRACK 09 AUDIO TITLE "Turkish March for orchestra, Op. 55" PERFORMER "Choo Hoey" INDEX 01 51:04:05

Вариант индексной карты (.CUE) с выставленными зазорами

REM GENRE ClassicalREM DISCID 8C0D1109REM COMMENT "ExactAudioCopy v1.0b3"PERFORMER "Choo Hoey"TITLE "IppoliIppolitov-Ivanov – Symphony No. 1; Turkish Fragments – Hoey"FILE "Ippolitov-Ivanov – Symphony No. 1; Turkish Fragments – Hoey.flac" WAVE TRACK 01 AUDIO TITLE "Symphony No. 1 in E Minor, Op. 46 - I. Adagio - Allegro risoluto" PERFORMER "Choo Hoey" INDEX 01 00:00:00 TRACK 02 AUDIO TITLE "Symphony No. 1 in E Minor, Op. 46 - II. Scherzo. Allegro" PERFORMER "Choo Hoey" INDEX 01 14:56:72 TRACK 03 AUDIO TITLE "Symphony No. 1 in E Minor, Op. 46 - III. Elegia. Larghetto" PERFORMER "Choo Hoey" INDEX 01 21:43:10 TRACK 04 AUDIO TITLE "Symphony No. 1 in E Minor, Op. 46 - IV. Finale. Allegro moderato" PERFORMER "Choo Hoey" INDEX 01 28:55:12 TRACK 05 AUDIO TITLE "Turkish Fragments, Op. 62 - I. Caravan" PERFORMER "Choo Hoey" INDEX 00 36:11:69 INDEX 01 36:15:62 TRACK 06 AUDIO TITLE "Turkish Fragments, Op. 62 - II. At Rest" PERFORMER "Choo Hoey" INDEX 00 39:40:10 INDEX 01 39:42:00 TRACK 07 AUDIO TITLE "Turkish Fragments, Op. 62 - III. Night" PERFORMER "Choo Hoey" INDEX 00 45:01:70 INDEX 01 45:04:00 TRACK 08 AUDIO TITLE "Turkish Fragments, Op. 62 - IV. Festival" PERFORMER "Choo Hoey" INDEX 00 47:33:04 INDEX 01 47:35:02 TRACK 09 AUDIO TITLE "Turkish March for orchestra, Op. 55" PERFORMER "Choo Hoey" INDEX 00 50:59:16 INDEX 01 51:04:05



Показать сообщения:    

Текущее время: 03-Дек 18:41

Часовой пояс: UTC + 3


Вы не можете начинать темы
Вы не можете отвечать на сообщения
Вы не можете редактировать свои сообщения
Вы не можете удалять свои сообщения
Вы не можете голосовать в опросах
Вы не можете прикреплять файлы к сообщениям
Вы не можете скачивать файлы