(Orchestral) Гейр Твейт - 1я сюита из '100 мелодий Хардангера', Концерт для арфы с оркестром № 2, Водный дух / Geirr Tveitt - Hundrad Hardingtonar Suite № 1, Harp concerto № 2, Nykken (Royal Philharmonic, Per Dreier) - 1989, APE (image+.cue


 

[Цитировать]

Geirr Tveitt - Hundrad Hardingtonar Suite № 1, Konsert for Harpe og orkester № 2, Nykken
Жанр: Orchestral, Concerto
Страна-производитель диска: Norway
Год издания диска: 1989
Издатель (лейбл): NIM (Norway In Music)
Номер по каталогу: CDN31008
Дата записи: 1987-89
Аудиокодек: APE
Тип рипа: image+.cue
Битрейт аудио: lossless
Продолжительность: 74'42
Источник: скачано с
Наличие сканов в содержимом раздачи: да
Треклист:

Geirr Tveitt (1908-1981)

01-15. Hundrad Hardingtonar for orkester, Suite nr. 1, op. 151 (1950-54)
I: Velkommen med жra (3:54)
II: Flyteljod (0:40)
III: Fagraste viso pao Jorж (3:12)
IV: Moltor og myrabжr (1:40)
V: Stavkyrkjestev (1:45)
VI: Е naoe no meg fш mi tusta (1:00)
VII: Uppskoka (2:48)
VIII: Syrgjeleg song um ein brennevinsdunk (1:41)
IX: Langeleiklеt (1:44)
X: Stшlstone (3:10)
XI: Hastverksbrudlaup (1:06)
XII: Guds Godhet og Guds Gtorhet (2:48)
XIII: Vise folks folkevisa um visse folk (1:34)
IV: Storskrytarstev (2:13)
XV: Siste Farvel (3:51)
16-18. Konsert for Harpe og orkester № 2, "Concerto Eroico", op. 170 (1957)
I: Marcia funebre (7:16)
II: Energico (6:49)
III: Memorias dolorosas (9:39)
19. Nykken, symfonisk maleri for orkester, Op. 187 (1958) (17:43)
Исполнители:
Royal Philharmonic Orchestra
Per Dreier, conductor
Turid Knejski, harp

Лог создания рипа

Exact Audio Copy V0.99 prebeta 4 from 23. January 2008
EAC extraction logfile from 7. April 2010, 9:02
Geirr Tveitt / NIM CDN 31008
Used drive : HL-DT-STDVDRAM GSA-4120B Adapter: 0 ID: 0
Read mode : SecureUtilize accurate stream : YesDefeat audio cache : YesMake use of C2 pointers : No
Read offset correction : 667Overread into Lead-In and Lead-Out : NoFill up missing offset samples with silence : YesDelete leading and trailing silent blocks : NoNull samples used in CRC calculations : NoUsed interface : Installed external ASPI interface
Used output format : Monkey's Audio Lossless Encoder v3.99 DLLSample format : Fast Lossless Compression
TOC of the extracted CD
Track | Start | Length | Start sector | End sector --------------------------------------------------------- 1 | 0:00.00 | 3:54.55 | 0 | 17604 2 | 3:54.55 | 0:40.20 | 17605 | 20624 3 | 4:35.00 | 3:12.22 | 20625 | 35046 4 | 7:47.22 | 1:40.68 | 35047 | 42614 5 | 9:28.15 | 1:45.02 | 42615 | 50491 6 | 11:13.17 | 1:00.73 | 50492 | 55064 7 | 12:14.15 | 2:48.20 | 55065 | 67684 8 | 15:02.35 | 1:41.62 | 67685 | 75321 9 | 16:44.22 | 1:44.60 | 75322 | 83181 10 | 18:29.07 | 3:10.35 | 83182 | 97466 11 | 21:39.42 | 1:06.28 | 97467 | 102444 12 | 22:45.70 | 2:48.10 | 102445 | 115054 13 | 25:34.05 | 1:34.50 | 115055 | 122154 14 | 27:08.55 | 2:13.12 | 122155 | 132141 15 | 29:21.67 | 3:51.10 | 132142 | 149476 16 | 33:13.02 | 7:16.48 | 149477 | 182224 17 | 40:29.50 | 6:49.20 | 182225 | 212919 18 | 47:18.70 | 9:39.52 | 212920 | 256396 19 | 56:58.47 | 17:43.28 | 256397 | 336149
Range status and errors
Selected range
Filename C:\TEMP\Geirr Tveitt - NIM CDN 31008.ape
Peak level 100.0 % Range quality 99.9 % Copy CRC 58568E12 Copy OK
No errors occurred
AccurateRip summary
Track 1 accurately ripped (confidence 1) [CA3F030E]Track 2 accurately ripped (confidence 1) [D220E15E]Track 3 accurately ripped (confidence 1) [621CDB60]Track 4 accurately ripped (confidence 1) [E8110E96]Track 5 accurately ripped (confidence 1) [F0C0449F]Track 6 accurately ripped (confidence 1) [D47C416B]Track 7 accurately ripped (confidence 1) [05F59844]Track 8 accurately ripped (confidence 1) [B84C51F2]Track 9 accurately ripped (confidence 1) [A14D1CCF]Track 10 accurately ripped (confidence 1) [09A7A667]Track 11 accurately ripped (confidence 1) [F343285B]Track 12 accurately ripped (confidence 1) [53FF5982]Track 13 accurately ripped (confidence 1) [111EF38F]Track 14 accurately ripped (confidence 1) [20ADA041]Track 15 accurately ripped (confidence 1) [B1279BC1]Track 16 accurately ripped (confidence 1) [818B6F39]Track 17 accurately ripped (confidence 1) [400C4A29]Track 18 accurately ripped (confidence 1) [3778F745]Track 19 accurately ripped (confidence 1) [F20CB544]
All tracks accurately ripped
End of status report
Доп. информация: Замысел "100 мелодий Хардангера" вырос из небольшой оркестровой сюиты в 12 частях, впервые исполненной в 1950 году с огромным успехом. Впоследствии Твейт добавил в сюиту ещё 3 мелодии. Каждая из мелодий - шедевр скандинавского импрессионизма, своего рода маленькая искусно оркестрованная симфоническая поэма.
Концерт № 2 для арфы с оркестром - один из самых необычных концертов для этого инструмента. Он назван Твейтом "Героическим". Арфа играет тихо, пианиссимо, во французской манере, в то время как оркестр звучит громко, фортиссимо. Первая часть носит характер траурного марша, в средней Твейт использует оригинальный инструментальный эффект, имитируя звук Эоловой арфы. В отличие от первого арфового концерта, партитура второго не погибла в пожаре в доме Твейта 1970г., поскольку хранилась в Обществе Норвежских композиторов. Именно это сочинение было исполнено в 1978 на торжествах в честь 70-летия композитора.
Симфоническая картина "Водный дух" (1958) написана по заказу Норвежской радиовещательной корпорации. Её сюжет основан на старинном норвежском предании о духе, который под видом белого коня выходит из чёрного пруда. Конь позволяет человеку себя оседлать, сначала скачет мелкой рысью, затем пускается в дикий галоп и увлекает наездника на дно пруда.



Показать сообщения:    

Текущее время: 03-Дек 12:40

Часовой пояс: UTC + 3


Вы не можете начинать темы
Вы не можете отвечать на сообщения
Вы не можете редактировать свои сообщения
Вы не можете удалять свои сообщения
Вы не можете голосовать в опросах
Вы не можете прикреплять файлы к сообщениям
Вы не можете скачивать файлы