(Symphony) Антонин Дворжак - Славянские танцы / Antonin Dvorak: Slavonic Dances (Karel Sejna) - 2004, FLAC (image+.cue) lossless


 

[Цитировать]

Антонин Дворжак - Славянские танцы / Antonin Dvorak: Slavonic Dances (Karel Sejna)
Жанр: Orchestral
Страна-производитель диска: Japan
Год издания диска: 2004
Издатель (лейбл): Supraphon
Номер по каталогу: COCQ-83807
Дата записи: 1959
Аудиокодек: FLAC
Тип рипа: image+.cue
Битрейт аудио: lossless
Продолжительность: 01:11:32
Источник рипа: скачано из сети
Треклист:
N°1 in C major (Presto)
N°2 in E minor (Allegretto Scherzando)
N°3 in A flat major (Poco allegro)
N°4 in F major (Tempo di Minuetto)
N°5 in A major (Allegro vivace)
N°6 in D major (Allegretto scherzando)
N°7 in C minor (Allegro assai)"
N°8 in G minor (Presto)"
N°9 in B major (Molto vivace)"
N°10 in E minor (Allegretto grazioso)"
N°11 in F major (Allegro)"
N°12 in D flat major (Allegretto graziaso)"
N°13 in B flat minor(Poco adagio)"
N°14 in B flat major (Moderato, quasi Minuetto)"
N°15 in C major (Allegro vivace)"
N°16 in A flat major (Grazioso e lento, ma non troppo, q..."
Исполнители:
Karel Sejna
Czech Philharmonic Orchestra

Audiochecker log

AUDIOCHECKER v2.0 beta (build 457) - by Dester - opdester@freemail.hu~~~~~~~~~~~~~~~~~~~~~~~~~~~~~~~~~~-=== DO NOT EDIT THIS FILE! ===-
Path: ...\Karel Sejna - Dvorak Slavonic Dances
1 -=- Karel Sejna - Dvorak Slavonic Dances.flac -=- CDDA (100%)
181036164

EAC

Exact Audio Copy V0.99 prebeta 3 from 28. July 2007
EAC extraction logfile from 30. June 2009, 11:47
Karel Sejna / Dvorak Slavonic Dances
Used drive : SONY DVD RW DRU-840A Adapter: 1 ID: 0
Read mode : SecureUtilize accurate stream : YesDefeat audio cache : YesMake use of C2 pointers : No
Read offset correction : 6Overread into Lead-In and Lead-Out : NoFill up missing offset samples with silence : YesDelete leading and trailing silent blocks : NoNull samples used in CRC calculations : NoUsed interface : Native Win32 interface for Win NT & 2000
Used output format : User Defined EncoderSelected bitrate : 768 kBit/sQuality : HighAdd ID3 tag : YesCommand line compressor : C:\Program Files\Exact Audio Copy\FLAC\FLAC.EXEAdditional command line options : --best -T "ARTIST=%a" -T "TITLE=%t" -T "ALBUM=%g" -T "DATE=%y" -T "TRACKNUMBER=%n" -T "GENRE=%m" %s
TOC of the extracted CD
Track | Start | Length | Start sector | End sector --------------------------------------------------------- 1 | 0:00.00 | 3:52.30 | 0 | 17429 2 | 3:52.30 | 4:43.52 | 17430 | 38706 3 | 8:36.07 | 4:03.05 | 38707 | 56936 4 | 12:39.12 | 6:35.25 | 56937 | 86586 5 | 19:14.37 | 3:20.00 | 86587 | 101586 6 | 22:34.37 | 5:37.35 | 101587 | 126896 7 | 28:11.72 | 3:22.73 | 126897 | 142119 8 | 31:34.70 | 4:31.45 | 142120 | 162489 9 | 36:06.40 | 4:06.15 | 162490 | 180954 10 | 40:12.55 | 6:02.57 | 180955 | 208161 11 | 46:15.37 | 3:16.60 | 208162 | 222921 12 | 49:32.22 | 5:15.33 | 222922 | 246579 13 | 54:47.55 | 2:41.52 | 246580 | 258706 14 | 57:29.32 | 3:43.73 | 258707 | 275504 15 | 61:13.30 | 3:15.45 | 275505 | 290174 16 | 64:29.00 | 7:03.42 | 290175 | 321941
Range status and errors
Selected range
Filename E:\Sejna Dvorak Slavonic\Karel Sejna - Dvorak Slavonic Dances.wav
Peak level 98.0 % Range quality 100.0 % Copy CRC EF5AF37E Copy OK
No errors occurred
AccurateRip summary
Track 1 not present in databaseTrack 2 not present in databaseTrack 3 not present in databaseTrack 4 not present in databaseTrack 5 not present in databaseTrack 6 not present in databaseTrack 7 not present in databaseTrack 8 not present in databaseTrack 9 not present in databaseTrack 10 not present in databaseTrack 11 not present in databaseTrack 12 not present in databaseTrack 13 not present in databaseTrack 14 not present in databaseTrack 15 not present in databaseTrack 16 not present in database
None of the tracks are present in the AccurateRip database
End of status report



Показать сообщения:    

Текущее время: 06-Дек 22:54

Часовой пояс: UTC + 3


Вы не можете начинать темы
Вы не можете отвечать на сообщения
Вы не можете редактировать свои сообщения
Вы не можете удалять свои сообщения
Вы не можете голосовать в опросах
Вы не можете прикреплять файлы к сообщениям
Вы не можете скачивать файлы