(Orchestral) Уильям Грант Стилл - Афро-американская симфония; Африка; Памяти цветных солдат, погибших за демократию / William Grant Still - Afro-American Symphony, Africa, In Memoriam (Fort Smith SO, John Jete) - 2005, FLAC (tracks+.cue) lossless


 

[Цитировать]

William Grant Still - Afro-American Symphony, Africa, In Memoriam
Жанр: Orchestral
Страна-производитель диска: Canada
Год издания диска: 2005
Издатель (лейбл): Naxos
Номер по каталогу: 8.559174
Дата записи: 2004
Аудиокодек: FLAC
Тип рипа: tracks+.cue
Битрейт аудио: lossless
Продолжительность: 60'09
Источник: скачано с
Наличие сканов в содержимом раздачи: да
Треклист:
William Grant Still (1895-1978)
01 In Memoriam: The Colored Soldiers who died for Democracy (1943) (7:28)
Africa, symphonic poem (1930)
02 1. Land of Peace (12:26)
03 2. Land of Romance (6:59)
04 3. Land of Superstition (8:31)
Symphony No. 1 ‘Afro-American’ (1930)
05 I. Longing: Moderato assai (7:33)
06 II. Sorrow: Adagio (5:14)
07 III. Humor: Animato (3:16)
08 IV. Aspiration: Lento, con risoluzione (8:36)
Исполнители:
Fort Smith Symphony Orchestra
John Jete, Conductor
Arkansas, USA, February, 2004

Лог создания рипа

Exact Audio Copy V0.99 prebeta 5 from 4. May 2009
EAC extraction logfile from 3. March 2010, 23:30
William Grant Still / Afro-American Symphony
Used drive : PLDS DVD+-RW DH-16AAS Adapter: 0 ID: 1
Read mode : SecureUtilize accurate stream : YesDefeat audio cache : YesMake use of C2 pointers : Yes
Read offset correction : 6Overread into Lead-In and Lead-Out : NoFill up missing offset samples with silence : YesDelete leading and trailing silent blocks : NoNull samples used in CRC calculations : NoUsed interface : Native Win32 interface for Win NT & 2000Gap handling : Not detected, thus appended to previous track
Used output format : Internal WAV RoutinesSample format : 44.100 Hz; 16 Bit; Stereo
TOC of the extracted CD
Track | Start | Length | Start sector | End sector --------------------------------------------------------- 1 | 0:00.00 | 7:28.50 | 0 | 33649 2 | 7:28.50 | 12:26.55 | 33650 | 89654 3 | 19:55.30 | 6:59.42 | 89655 | 121121 4 | 26:54.72 | 8:31.03 | 121122 | 159449 5 | 35:26.00 | 7:33.55 | 159450 | 193479 6 | 42:59.55 | 5:14.30 | 193480 | 217059 7 | 48:14.10 | 3:16.30 | 217060 | 231789 8 | 51:30.40 | 8:36.37 | 231790 | 270526
Track 1
Filename C:\Users\Public\Documents\EAC\01 In Memoriam.wav
Peak level 87.2 % Track quality 100.0 % Copy CRC 22B59547 Cannot be verified as accurate (confidence 7) [E01D6903], AccurateRip returned [75EBA593] Copy OK
Track 2
Filename C:\Users\Public\Documents\EAC\02 Africa (Symphonic Poem) 1 - Land Of Peace.wav
Peak level 80.0 % Track quality 100.0 % Copy CRC 1D0ACD4B Cannot be verified as accurate (confidence 7) [093BA0DF], AccurateRip returned [7C7E9299] Copy OK
Track 3
Filename C:\Users\Public\Documents\EAC\03 Africa (Symphonic Poem) 2 - Land Of Romance.wav
Peak level 49.5 % Track quality 100.0 % Copy CRC AED828B7 Cannot be verified as accurate (confidence 7) [4F8D5296], AccurateRip returned [B0E415C1] Copy OK
Track 4
Filename C:\Users\Public\Documents\EAC\04 Africa (Symphonic Poem) 3 - Land Of Superstition.wav
Peak level 92.7 % Track quality 100.0 % Copy CRC 2690A28D Cannot be verified as accurate (confidence 7) [B4FC6C6D], AccurateRip returned [165619EF] Copy OK
Track 5
Filename C:\Users\Public\Documents\EAC\05 Symphony 1 'Afro-American' 1 - Moderato Assai.wav
Peak level 66.3 % Track quality 100.0 % Copy CRC 5EBF2BEA Cannot be verified as accurate (confidence 7) [DE089CCA], AccurateRip returned [85D58020] Copy OK
Track 6
Filename C:\Users\Public\Documents\EAC\06 Symphony 1 'Afro-American' 2 - Adagio.wav
Peak level 33.0 % Track quality 100.0 % Copy CRC B8D83A66 Cannot be verified as accurate (confidence 7) [9D7F372F], AccurateRip returned [8D45FB0F] Copy OK
Track 7
Filename C:\Users\Public\Documents\EAC\07 Symphony 1 'Afro-American' 3 - Animato.wav
Peak level 90.2 % Track quality 100.0 % Copy CRC E12CAFA9 Cannot be verified as accurate (confidence 7) [ECE8B833], AccurateRip returned [7AB68D0F] Copy OK
Track 8
Filename C:\Users\Public\Documents\EAC\08 Symphony 1 'Afro-American' 4 - Lento, Con Risoluzione.wav
Peak level 99.9 % Track quality 100.0 % Copy CRC DE099806 Cannot be verified as accurate (confidence 7) [6722A7D6], AccurateRip returned [C1142EFD] Copy OK
No tracks could be verified as accurateYou may have a different pressing from the one(s) in the database
No errors occurred
End of status report

Содержание индексной карты (.CUE)

REM GENRE ClassicalREM DATE 2005REM DISCID 6F0E1708REM COMMENT "ExactAudioCopy v0.99pb5"PERFORMER "William Grant Still"TITLE "Afro-American Symphony"FILE "01 In Memoriam.wav" WAVE TRACK 01 AUDIO TITLE "In Memoriam" PERFORMER "William Grant Still" INDEX 01 00:00:00 TRACK 02 AUDIO TITLE "Africa (Symphonic Poem) 1 - Land Of Peace" PERFORMER "William Grant Still" INDEX 00 07:19:62FILE "02 Africa (Symphonic Poem) 1 - Land Of Peace.wav" WAVE INDEX 01 00:00:00 TRACK 03 AUDIO TITLE "Africa (Symphonic Poem) 2 - Land Of Romance" PERFORMER "William Grant Still" INDEX 00 12:18:30FILE "03 Africa (Symphonic Poem) 2 - Land Of Romance.wav" WAVE INDEX 01 00:00:00 TRACK 04 AUDIO TITLE "Africa (Symphonic Poem) 3 - Land Of Superstition" PERFORMER "William Grant Still" INDEX 00 06:52:67FILE "04 Africa (Symphonic Poem) 3 - Land Of Superstition.wav" WAVE INDEX 01 00:00:00 TRACK 05 AUDIO TITLE "Symphony 1 'Afro-American' 1 - Moderato Assai" PERFORMER "William Grant Still" INDEX 00 08:15:35FILE "05 Symphony 1 'Afro-American' 1 - Moderato Assai.wav" WAVE INDEX 01 00:00:00 TRACK 06 AUDIO TITLE "Symphony 1 'Afro-American' 2 - Adagio" PERFORMER "William Grant Still" INDEX 00 07:31:37FILE "06 Symphony 1 'Afro-American' 2 - Adagio.wav" WAVE INDEX 01 00:00:00 TRACK 07 AUDIO TITLE "Symphony 1 'Afro-American' 3 - Animato" PERFORMER "William Grant Still" INDEX 00 05:11:50FILE "07 Symphony 1 'Afro-American' 3 - Animato.wav" WAVE INDEX 01 00:00:00 TRACK 08 AUDIO TITLE "Symphony 1 'Afro-American' 4 - Lento, Con Risoluzione" PERFORMER "William Grant Still" INDEX 00 03:13:55FILE "08 Symphony 1 'Afro-American' 4 - Lento, Con Risoluzione.wav" WAVE INDEX 01 00:00:00
Доп. информация: Уильям Грант Стилл - первый американский негритянский композитор, получивший признание в сфере академической музыки. Ученик Дж.Чедвика и Эдгара Вареза, начинал как аранжировщик для оркестра Пола Уайтмена. Прекрасно зная и глубоко чувствуя негритянский фольклор, Стилл создал в 1930 году "Афро-американскую симфонию" и симфоническую поэму "Африка" - одни из первых крупных симфонических произведений, построенных на мело-ритмических элементах негритянской музыки, спиричуэлов, блюзов, рэгтайма и джаза. Конечно, эти произведения написаны в русле традицонной неоромантической лирической идиомы, однако африканская фольклорная составляющая, импровизационность и роскошные чувственные блюзовые гармонии придают им экзотический дух своеобразного американского "музыкального кучкизма" и импрессионистско-модерновый тон. В годы 2-й мировой войны этот талантливый "негритянский Бородин" обратился к патриотическим темам борьбы своего народа за свободу и равенство (Памяти цветных солдат, погибших за демократию, 1943).



Показать сообщения:    

Текущее время: 02-Дек 23:10

Часовой пояс: UTC + 3


Вы не можете начинать темы
Вы не можете отвечать на сообщения
Вы не можете редактировать свои сообщения
Вы не можете удалять свои сообщения
Вы не можете голосовать в опросах
Вы не можете прикреплять файлы к сообщениям
Вы не можете скачивать файлы