(Classical) Камерный оркестр Арката (Mozart, Piazzolla, Римский-Корсаков, Скорик, Kreisler, Monti, Anderson, Strauss) - 2008, FLAC (image+.cue) lossless


 

[Цитировать]

Камерный оркестр Арката
Жанр: Classical
Страна-производитель диска: Украина
Год издания диска: 2008
Издатель (лейбл): Clara studio
Аудиокодек: FLAC
Тип рипа: image+.cue
Битрейт аудио: lossless
Продолжительность: 45.25
Источник: собственный рип
Наличие сканов в содержимом раздачи: да
Треклист:
Вольфганг Амадей Моцарт. Церковная соната D dur
Вольфганг Амадей Моцарт. Церковная соната A dur
Вольфганг Амадей Моцарт. Церковная соната B dur
Астор Пьяццолла. Мелодия
Астор Пьяццолла. Фуга и мистерио
Астор Пьяццолла. Смерть ангела
Астор Пьяццолла. Затерянные птицы
Николай Римский-Корсаков - К.Виленский. Полет шмеля
Мирослав Скорик. Мелодия
Франц Крейслер. Маленький венский марш
В.Монти. Чардаш
Л.Андерсон. Наждачный балет
Иоганн Штраус. Полька "Трич-трач"
Л.Андерсон. Забытые мечты
Исполнители:
Академический камерный оркестр "Арката", дирижер - заслуженный деятель искусств Украины Георгий Курков.

Лог создания рипа

Exact Audio Copy V1.0 beta 3 from 29. August 2011
Отчёт EAC об извлечении, выполненном 17. июля 2014, 13:50
Академический камерный оркестр "Арката" / АРКАТА
Дисковод: HL-DT-STDVDRAM GH22NS50 Adapter: 0 ID: 2
Режим чтения : ДостоверностьИспользование точного потока : ДаОтключение кэша аудио : ДаИспользование указателей C2 : Нет
Коррекция смещения при чтении : 667Способность читать области Lead-in и Lead-out : НетЗаполнение пропущенных сэмплов тишиной : ДаУдаление блоков с тишиной в начале и конце : НетПри вычислениях CRC использовались нулевые сэмплы : ДаИнтерфейс : Встроенный Win32-интерфейс для Win NT/2000
Выходной формат : Пользовательский кодировщикВыбранный битрейт : 128 kBit/sКачество : ВысокийДобавление ID3-тега : НетУтилита сжатия : C:\Program Files (x86)\Exact Audio Copy\Flac\flac.exeДополнительные параметры : -V -8 -T "Date=%year%" -T "Genre=%genre%" %source%
TOC извлечённого CD
Трек | Старт | Длительность | Начальный сектор | Конечный сектор --------------------------------------------------------------------- 1 | 0:00.00 | 2:22.19 | 0 | 10668 2 | 2:22.19 | 2:59.26 | 10669 | 24119 3 | 5:21.45 | 3:44.03 | 24120 | 40922 4 | 9:05.48 | 4:32.47 | 40923 | 61369 5 | 13:38.20 | 4:15.03 | 61370 | 80497 6 | 17:53.23 | 3:50.60 | 80498 | 97807 7 | 21:44.08 | 3:18.13 | 97808 | 112670 8 | 25:02.21 | 2:01.66 | 112671 | 121811 9 | 27:04.12 | 3:22.50 | 121812 | 137011 10 | 30:26.62 | 3:09.54 | 137012 | 151240 11 | 33:36.41 | 4:07.52 | 151241 | 169817 12 | 37:44.18 | 2:05.46 | 169818 | 179238 13 | 39:49.64 | 2:39.07 | 179239 | 191170 14 | 42:28.71 | 2:52.62 | 191171 | 204132
Характеристики диапазона извлечения и сообщения об ошибках
Выбранный диапазон
Имя файла C:\Users\house\Desktop\Новая папка\Академический камерный оркестр ''Арката'' - АРКАТА.wav
Копирование прервано
Конец отчёта
==== Контрольная сумма отчёта 175A38BA2991BDAE8E213B06FDD8C331F8ADE57092DFFCA8CE8A0A5746046412 ====
------------------------------------------------------------
Exact Audio Copy V1.0 beta 3 from 29. August 2011
Отчёт EAC об извлечении, выполненном 17. июля 2014, 17:26
Академический камерный оркестр "Арката" / АРКАТА
Дисковод: HL-DT-STDVDRAM GH22NS50 Adapter: 0 ID: 2
Режим чтения : ДостоверностьИспользование точного потока : ДаОтключение кэша аудио : ДаИспользование указателей C2 : Нет
Коррекция смещения при чтении : 667Способность читать области Lead-in и Lead-out : НетЗаполнение пропущенных сэмплов тишиной : ДаУдаление блоков с тишиной в начале и конце : НетПри вычислениях CRC использовались нулевые сэмплы : ДаИнтерфейс : Встроенный Win32-интерфейс для Win NT/2000
Выходной формат : Пользовательский кодировщикВыбранный битрейт : 128 kBit/sКачество : ВысокийДобавление ID3-тега : НетУтилита сжатия : C:\Program Files (x86)\Exact Audio Copy\Flac\flac.exeДополнительные параметры : -V -8 -T "Date=%year%" -T "Genre=%genre%" %source%
TOC извлечённого CD
Трек | Старт | Длительность | Начальный сектор | Конечный сектор --------------------------------------------------------------------- 1 | 0:00.00 | 2:22.19 | 0 | 10668 2 | 2:22.19 | 2:59.26 | 10669 | 24119 3 | 5:21.45 | 3:44.03 | 24120 | 40922 4 | 9:05.48 | 4:32.47 | 40923 | 61369 5 | 13:38.20 | 4:15.03 | 61370 | 80497 6 | 17:53.23 | 3:50.60 | 80498 | 97807 7 | 21:44.08 | 3:18.13 | 97808 | 112670 8 | 25:02.21 | 2:01.66 | 112671 | 121811 9 | 27:04.12 | 3:22.50 | 121812 | 137011 10 | 30:26.62 | 3:09.54 | 137012 | 151240 11 | 33:36.41 | 4:07.52 | 151241 | 169817 12 | 37:44.18 | 2:05.46 | 169818 | 179238 13 | 39:49.64 | 2:39.07 | 179239 | 191170 14 | 42:28.71 | 2:52.62 | 191171 | 204132
Характеристики диапазона извлечения и сообщения об ошибках
Выбранный диапазон
Имя файла C:\Users\house\Desktop\Новая папка\Академический камерный оркестр ''Арката'' - АРКАТА.wav
Пиковый уровень 98.8 % Скорость извлечения 1.9 X Качество диапазона 99.9 % CRC теста E2BA7C0D CRC копии E2BA7C0D Копирование... OK
Ошибок не произошло
Конец отчёта
---- CUETools DB Plugin V2.1.3
[CTDB TOCID: eWZ8AJVM8svI8b.BAsr78niVR6A-] disk not present in database, Submit result: eWZ8AJVM8svI8b.BAsr78niVR6A- has been uploaded
==== Контрольная сумма отчёта 7E386D8CD4A1FA632DADBC8383DC11563D546FF708C40A31FF42A2C6A716FA09 ====

Содержание индексной карты (.CUE)

REM GENRE ClassicalREM DATE 2008REM DISCID A60AA10EREM COMMENT "ExactAudioCopy v1.0b3"PERFORMER "Академический камерный оркестр 'Арката'"TITLE "АРКАТА"FILE "Академический камерный оркестр ''Арката'' - АРКАТА.flac" WAVE TRACK 01 AUDIO TITLE "В.А.Моцарт. Церковная соната D dur" PERFORMER "Академический камерный оркестр 'Арката'" INDEX 01 00:00:00 TRACK 02 AUDIO TITLE "В.А.Моцарт. Церковная соната A dur" PERFORMER "Академический камерный оркестр 'Арката'" INDEX 00 02:19:19 INDEX 01 02:22:19 TRACK 03 AUDIO TITLE "В.А.Моцарт. Церковная соната B dur" PERFORMER "Академический камерный оркестр 'Арката'" INDEX 00 05:18:45 INDEX 01 05:21:45 TRACK 04 AUDIO TITLE "А.Пьяццолла. Мелодия" PERFORMER "Академический камерный оркестр 'Арката'" INDEX 00 09:02:48 INDEX 01 09:05:48 TRACK 05 AUDIO TITLE "А.Пьяццолла. Фуга и мистерио" PERFORMER "Академический камерный оркестр 'Арката'" INDEX 00 13:35:20 INDEX 01 13:38:20 TRACK 06 AUDIO TITLE "А.Пьяццолла. Смерть ангела" PERFORMER "Академический камерный оркестр 'Арката'" INDEX 00 17:50:23 INDEX 01 17:53:23 TRACK 07 AUDIO TITLE "А.Пьяццолла. Затерянные птицы" PERFORMER "Академический камерный оркестр 'Арката'" INDEX 00 21:41:08 INDEX 01 21:44:08 TRACK 08 AUDIO TITLE "Н.Римский-Корсаков - К.Виленский. Полет шмеля" PERFORMER "Академический камерный оркестр 'Арката'" INDEX 00 24:59:21 INDEX 01 25:02:21 TRACK 09 AUDIO TITLE "М.Скорик. Мелодия" PERFORMER "Академический камерный оркестр 'Арката'" INDEX 00 27:01:12 INDEX 01 27:04:12 TRACK 10 AUDIO TITLE "Ф.Крейслер. Маленький венский марш" PERFORMER "Академический камерный оркестр 'Арката'" INDEX 00 30:23:62 INDEX 01 30:26:62 TRACK 11 AUDIO TITLE "В.Монти. Чардаш" PERFORMER "Академический камерный оркестр 'Арката'" INDEX 00 33:33:41 INDEX 01 33:36:41 TRACK 12 AUDIO TITLE "Л.Андерсон. Наждачный балет" PERFORMER "Академический камерный оркестр 'Арката'" INDEX 00 37:41:18 INDEX 01 37:44:18 TRACK 13 AUDIO TITLE "Й.Штраус. Полька 'Трич-трач'" PERFORMER "Академический камерный оркестр 'Арката'" INDEX 00 39:46:64 INDEX 01 39:49:64 TRACK 14 AUDIO TITLE "Л.Андерсон. Забытые мечты" PERFORMER "Академический камерный оркестр 'Арката'" INDEX 00 42:25:71 INDEX 01 42:28:71
Доп. информация: Камерный оркестр "Арката" Винницкой облфилармонии было основано в 1993 году, 31 мая состоялся первый большой концерт оркестра.
Организатором, художественным руководителем и дирижером камерного оркестра "Арката" является известный пианист, органист, доцент ВГПУ им. Коцюбинского, заслуженный деятель искусств Украины Георгий Курков. Кроме работы с оркестром и со студентами университета он активно концертирует как солист в Украине и за рубежом, а также проводит международный органный фестиваль "Музыка в монастырских стенах".
Концертмейстером камерного оркестра "Арката" является заслуженная артистка Украины, лауреат Всеукраинского конкурса камерных исполнителей Галина Гусева.
"Арката" - неизменный участник всех фестивалей академической музыки, которые проходили в Виннице. Также оркестр совершил несколько гастрольных путешествий за рубежом. За годы творческой деятельности камерный оркестр "Арката" сыграл более 2000 концертов. Его слушали почти во всех городах Винницкой области, а также в Киеве, Черкассах, Хмельницком, Житомире, Каневе, Остроге, Кракове, Вроцлаве, Бытоме, Лежайську, Могилеве, Одессе и др. ..
Камерный оркестр "Арката" принимал участие в международных фестивалях "Магутны Божа" (Беларусь, Могилев 1994), "Радом-Ороньско" (Польша 1995, 1997), "Памяти Святослава Рихтера" (Украина, Житомир, 2000), "Чайковского и фон Мекк "(Украина, Винница 2003, 2004, 2005 гг)," Контрасты "(Украина, г. Львов, 2004 г.)," Музыкальные премьеры сезона "(Украина, г. Киев, 2005 г.)
Кроме того камерный оркестр "Арката" был инициатором проведения в Виннице фестивалей классической музыки "Бах и его эпоха" (1995), "Амадеус" (1996), "Арката плюс" (1997), "Шопениана - XX" (1999), "Бетховенские ансамбли "(2000) и другие.
С камерным оркестром охотно выступали ведущие отечественные и зарубежные исполнители, в частности народные артисты Украины: Александр Гурец, Лидия Шутко, Александр Дьяченко, Валерий Буймистер; заслуженные артисты Украины Наталья Дацко, Олесь Симчук, Вадим Борисов, Ольга Ривняк, Юрий Яценко, Елена Стаховская и др.; заслуженные артисты России Климентий Векслер и Аркадий Шилклопер; лауреаты международных конкурсов Константин Шарик (Варшава), Андрей Ярошинский (Москва), Гжегож Олькевич (Вроцлав), Гельмут Ленардт (Линц), всего более ста солистов.
С оркестром выступали дирижеры народный артист Украины Вячеслав Редя, заслуженные деятели искусств Украины Николай Дядюра, Николай Васянович, заслуженный артист Украины Виктор Плоскина, Хайнц Праммер (Вена), Ежи Кукля (Люблин).



Показать сообщения:    

Текущее время: 10-Дек 02:17

Часовой пояс: UTC + 3


Вы не можете начинать темы
Вы не можете отвечать на сообщения
Вы не можете редактировать свои сообщения
Вы не можете удалять свои сообщения
Вы не можете голосовать в опросах
Вы не можете прикреплять файлы к сообщениям
Вы не можете скачивать файлы