(Orchestral, Impressionism) Альбер Руссель - Заклинания / Albert Roussel - Evocations (Orchestre du Capitole de Toulouse, Michel Plasson, Jose Van Dam, Николай Гедда, Nathalie Stutzmann, Orfeon Donostiarra) - 1987, APE (image+.cue) lossless


 

[Цитировать]

Albert Roussel - Evocations, Resurrection - Michel Plasson
Жанр: Orchestral, Impressionism
Страна-производитель диска: France
Год издания диска: 1987
Издатель (лейбл): EMI Classics
Номер по каталогу: 7478872
Дата записи: 1986
Аудиокодек: APE
Тип рипа: image+.cue
Битрейт аудио: lossless
Продолжительность: 57'49
Источник: скачано с
Наличие сканов в содержимом раздачи: да
Треклист:

Albert Roussel (1869-1937)

Evocations, op. 15 (1910-11)
01 I. Les Dieux dans l'ombre des cavernes (13:17)
02 II. La ville rose (9:18)
03 III. Aux bords du fleuve sacre (22:28) *
04 Resurrection, prelude symphonique d'apres L.Tolstoi, op.4 (1903) (12:46)
Исполнители:
Orchestre du Capitole de Toulouse
Michel Plasson, direction
* Jose Van Dam (baryton), Николай Гедда (tenor), Nathalie Stutzmann (contralto)
* Orfeon Donostiarra Choeur

Лог создания рипа

Exact Audio Copy V0.99 prebeta 4 from 23. January 2008
EAC extraction logfile from 11. May 2010, 9:04
Michel Plasson / Roussel: Evocations op. 15 · Rйsurrection op. 4
Used drive : HL-DT-STDVDRAM GSA-4120B Adapter: 0 ID: 0
Read mode : SecureUtilize accurate stream : YesDefeat audio cache : YesMake use of C2 pointers : No
Read offset correction : 667Overread into Lead-In and Lead-Out : NoFill up missing offset samples with silence : YesDelete leading and trailing silent blocks : NoNull samples used in CRC calculations : NoUsed interface : Installed external ASPI interface
Used output format : Monkey's Audio Lossless Encoder v3.99 DLLSample format : Fast Lossless Compression
TOC of the extracted CD
Track | Start | Length | Start sector | End sector --------------------------------------------------------- 1 | 0:00.00 | 13:17.33 | 0 | 59807 2 | 13:17.33 | 9:18.62 | 59808 | 101719 3 | 22:36.20 | 22:28.38 | 101720 | 202857 4 | 45:04.58 | 12:46.65 | 202858 | 260372
Range status and errors
Selected range
Filename C:\TEMP\Michel Plasson - Roussel Evocations op. 15 · Rйsurrection op. 4.ape
Peak level 69.1 % Range quality 100.0 % Copy CRC EEC16EED Copy OK
No errors occurred
AccurateRip summary
Track 1 accurately ripped (confidence 1) [948498BA]Track 2 accurately ripped (confidence 1) [9A997F40]Track 3 accurately ripped (confidence 1) [F1A93AB7]Track 4 accurately ripped (confidence 1) [556CCEB8]
All tracks accurately ripped
End of status report
Доп. информация: В 1909 году Руссель посещает Индию, после чего пишет масштабное сочинение на индийскую тематику - симфонический триптих для солистов, хора и оркестра "Заклинания" (1910-11). Впервые исполненный в Париже 18 мая 1912 года, он поразил слушателей и критиков своей яркой экзотической необычностью в сочетании с импрессионистским стилем. Русселя сразу и бесповоротно признали одним из лидеров современной французской музыки. Первые две части триптиха чисто инструментальные. I. "Боги во мраке пещеры" - подземные храмы Эллоры. II. "Розовый город" - красоты освещённых солнцем беломраморных дворцов в Джайпуре и уличная сцена торжественого въезда Раджы. IIIя часть "На берегу священной реки" (основой для неё стала услышанная Русселем на берегу Ганга в Бенаресе песня факира) начинается хором прощания с уходящим днём: 'Солнце погружается в пучину моря и вечерняя свежесть призывает птиц в их гнёзда скрытые под сенью деревьев'. Затем следует обращение баритона ко мраку ночи, за ним - диалоги влюблённых, прославляющих ночь и всё завершается торжественным гимном солнцу. Руссель сохраняет общеевропейский строй музыки, включая в него то индийский звукоряд или ритмику, то подлинную индийскую импровизацию. Сама концепция сочинения - воссоздание пейзажей в разном освещении - вполне в духе Дебюсси (особенно его "Ноктюрнов"), стилистика же заметно отличается от этого прообраза ясностью мелодических линий, ритмической энергией, что органически сочетается с тонкостью оркестровых эффектов. И если искать аналогий с живописью, то прежде всего вспоминаются алжирские пейзажи Альбера Марке - ослепительно чистые по краскам, жесткие в контрастах светотеней и восхитительные своей сдержанной красотой.



Показать сообщения:    

Текущее время: 07-Дек 17:28

Часовой пояс: UTC + 3


Вы не можете начинать темы
Вы не можете отвечать на сообщения
Вы не можете редактировать свои сообщения
Вы не можете удалять свои сообщения
Вы не можете голосовать в опросах
Вы не можете прикреплять файлы к сообщениям
Вы не можете скачивать файлы