(Classical, ballet) Хилдинг Розенберг - Орфей в городе / Hilding Rosenberg - Orpheus in Town (Petter Sundkvist, B. Tommy Andersson, Swedish Radio Symphony Orchestra, Royal Philharmonic Orchestra - Stockholm) - 1998, FLAC (image+.cue) lossless


 

[Цитировать]

Hilding Rosenberg - Orpheus in Town [Ballet] (Petter Sundkvist, B. Tommy Andersson, Swedish Radio Symphony Orchestra, Royal Philharmonic Orchestra - Stockholm)
Жанр: Classical
Год издания диска: 1998
Издатель (лейбл): Phono Suecia
Номер по каталогу: PSCD 702
Аудиокодек: FLAC
Тип рипа: image+.cue
Битрейт аудио: lossless
Продолжительность: 68:07
Источник: скачано из сети
Наличие сканов в содержимом раздачи: да
Треклист:
01. Prelude to Yttersta domen (Last Judgement), Op. 48 [0:07:57.42]
02. Orfeus i sta'n (Orpheus in Town), Op. 75 - Tableau I: Prelude [0:01:25.35]
03. Tableau I: Dance [0:02:35.48]
04. Scene 2: Orfeus' uppvaknande (Orpheus' Awakening) [0:04:36.40]
05. En av statyerna, solodans (One of the statues, solo dance) [0:01:36.30]
06. Statyerna trostar Orfeus (The statues console Orpheus) [0:02:37.57]
07. Konsertpubliken kommer ut (The concert audience comes out) [0:00:41.63]
08. Scene 3: Tarantella (Dance of Concert Audience) [0:03:43.42]
09. Intermezzo I (Concert audience in different groups searches for Orpheus) [0:01:18.53]
10. Tableau II Scene 1: Pa Karleksudden (Love point) [0:02:36.27]
11. Scene 2: Fredrika Bremerstatyn (The statue of Fredrika Bremer) [0:03:59.58]
12. Scene 3: Framfor Nationalmuseum (In front of the National Museum) [0:01:07.37]
13. Amor och Psyke (Amor and Psyche) [0:03:08.45]
14. Scherzo (Cupids enter) [0:01:44.53]
15. Nocturne [0:04:04.02]
16. Intermezzo II (Orpheus enter the Opera House) [0:02:18.43]
17. Tableau III Scene 1: Scen ur Orfeus av Gluck (Scenes from Orpheus by Gluck) [0:00:56.70]
18. Orfeusstatyn stormar in pa scenen (He persuades Eurydice to follow him) [0:01:57.32]
19. Scene 2: Tidens rytm (Rhythm of the time) [0:02:20.60]
20. Bartenderns dans (The Bartender's dance) [0:01:23.55]
21. Flickans dans (Dance of the girl) [0:01:01.42]
22. Dans av negress (Dance of the Negress) [0:03:11.46]
23. Trio Bartendern, Flickan och Negressen (Bartender, Girl and Negress) [0:01:40.55]
24. Tango: Orfeus och damen (Orpheus and the lady) [0:02:20.15]
25. Damens uppvaktande, en tjock herre, stormar in (The lady's admirer, a stout gentleman, enter's abruptly) [0:01:25.02]
26. Intermezzo III [0:01:37.73]
27. Tableau IV: Samma bild som forsta tablan. Pa morgonen (Orpheus pleads with Eurydice to follow him up on to the pedestal) [0:03:04.05]
28. Finale: Folkscen pa torget (Folk-scene in the market place) [0:01:34.05]
Исполнители:
Swedish Radio Symphony Orchestra,
Royal Philharmonic Orchestra - Stockholm
Petter Sundkvist,
B. Tommy Andersson

LOG EAC

Exact Audio Copy V1.0 beta 3 from 29. August 2011
EAC extraction logfile from 8. December 2013, 0:56
Hilding Rosenberg / Orpheus in Town [Ballet] (Andersson, Sundkvist)
Used drive : TSSTcorpCDDVDW SH-S223C Adapter: 2 ID: 1
Read mode : SecureUtilize accurate stream : YesDefeat audio cache : YesMake use of C2 pointers : No
Read offset correction : 697Overread into Lead-In and Lead-Out : NoFill up missing offset samples with silence : YesDelete leading and trailing silent blocks : NoNull samples used in CRC calculations : YesUsed interface : Native Win32 interface for Win NT & 2000
Used output format : User Defined EncoderSelected bitrate : 896 kBit/sQuality : HighAdd ID3 tag : NoCommand line compressor : C:\Program Files (x86)\Exact Audio Copy\FLAC\FLAC.EXEAdditional command line options : -V -0 -T "COMMENT=Ripped by Tapaz9" -T "artist=%artist%" -T "title=%title%" -T "album=%albumtitle%" -T "date=%year%" -T "tracknumber=%tracknr%" -T "genre=%genre%" %source%
TOC of the extracted CD
Track | Start | Length | Start sector | End sector---------------------------------------------------------1 | 0:00.00 | 7:57.42 | 0 | 358162 | 7:57.42 | 1:25.35 | 35817 | 422263 | 9:23.02 | 2:35.48 | 42227 | 538994 | 11:58.50 | 4:36.40 | 53900 | 746395 | 16:35.15 | 1:36.30 | 74640 | 818696 | 18:11.45 | 2:37.57 | 81870 | 937017 | 20:49.27 | 0:41.63 | 93702 | 968398 | 21:31.15 | 3:43.42 | 96840 | 1136069 | 25:14.57 | 1:18.53 | 113607 | 11950910 | 26:33.35 | 2:36.27 | 119510 | 13123611 | 29:09.62 | 3:59.58 | 131237 | 14921912 | 33:09.45 | 1:07.37 | 149220 | 15428113 | 34:17.07 | 3:08.45 | 154282 | 16842614 | 37:25.52 | 1:44.53 | 168427 | 17627915 | 39:10.30 | 4:04.02 | 176280 | 19458116 | 43:14.32 | 2:18.43 | 194582 | 20497417 | 45:33.00 | 0:56.70 | 204975 | 20924418 | 46:29.70 | 1:57.32 | 209245 | 21805119 | 48:27.27 | 2:20.60 | 218052 | 22861120 | 50:48.12 | 1:23.55 | 228612 | 23489121 | 52:11.67 | 1:01.42 | 234892 | 23950822 | 53:13.34 | 3:11.46 | 239509 | 25387923 | 56:25.05 | 1:40.55 | 253880 | 26143424 | 58:05.60 | 2:20.15 | 261435 | 27194925 | 60:26.00 | 1:25.02 | 271950 | 27832626 | 61:51.02 | 1:37.73 | 278327 | 28567427 | 63:29.00 | 3:04.05 | 285675 | 29947928 | 66:33.05 | 1:34.05 | 299480 | 306534
Range status and errors
Selected range
Filename F:\Musique\Rosenberg, Hilding\Rosenberg_OrpheusInTown\Hilding Rosenberg - Orpheus in Town [Ballet] (Andersson, Sundkvist).wav
Peak level 100.0 %Extraction speed 14.2 XRange quality 100.0 %Copy CRC 402BE147Copy OK
No errors occurred
End of status report
==== Log checksum 063623A52761E717B1E2E41440142E85A7F7FBF30CBFF7F1105B59776B66C075 ====



Показать сообщения:    

Текущее время: 02-Дек 23:11

Часовой пояс: UTC + 3


Вы не можете начинать темы
Вы не можете отвечать на сообщения
Вы не можете редактировать свои сообщения
Вы не можете удалять свои сообщения
Вы не можете голосовать в опросах
Вы не можете прикреплять файлы к сообщениям
Вы не можете скачивать файлы