(Classical) Hilding Rosenberg - Symphonies 3 & 6 (Stig Westerberg, Herbert Blomstedt) - 1996, FLAC (image+.cue) lossless


 

[Цитировать]

Hilding Rosenberg - Symphonies 3 & 6 (Stig Westerberg, Herbert Blomstedt)
Жанр: Classical
Год издания диска: 1996
Издатель (лейбл): PhonoSuecia
Номер по каталогу:
Аудиокодек: FLAC
Тип рипа: image+.cue
Битрейт аудио: lossless
Продолжительность: 57:42
Источник: скачано из сети
Наличие сканов в содержимом раздачи: да
Треклист:
01. Symphony No. 6 "Sinfonia Semplice" - I. Adagio [0:09:20.35]
02. II. Alla marcia, Allegro [0:05:47.28]
03. III. Recitativo, Allegro (attacca) [0:02:25.02]
04. IV. Inno, Allegro moderato [0:06:39.13]
05. Symphony No. 3 - I. Moderato [0:12:52.17]
06. II. Andante sostenuto [0:08:39.33]
07. III. Allegro con fuoco, molto marcato [0:06:32.42]
08. IV. Andante semplice [0:05:26.46]
Исполнители:
Stig Westerberg,
Herbert Blomstedt

LOG EAC

Exact Audio Copy V1.0 beta 3 from 29. August 2011
EAC extraction logfile from 9. March 2014, 0:19
Hilding Rosenberg / Symphonies 3 & 6 - Westerberg, Blomstedt
Used drive : TSSTcorpCDDVDW SH-S223C Adapter: 2 ID: 1
Read mode : SecureUtilize accurate stream : YesDefeat audio cache : YesMake use of C2 pointers : No
Read offset correction : 697Overread into Lead-In and Lead-Out : NoFill up missing offset samples with silence : YesDelete leading and trailing silent blocks : NoNull samples used in CRC calculations : YesUsed interface : Native Win32 interface for Win NT & 2000
Used output format : User Defined EncoderSelected bitrate : 896 kBit/sQuality : HighAdd ID3 tag : NoCommand line compressor : C:\Program Files (x86)\Exact Audio Copy\FLAC\FLAC.EXEAdditional command line options : -V -0 -T "COMMENT=Ripped by Tapaz9" -T "artist=%artist%" -T "title=%title%" -T "album=%albumtitle%" -T "date=%year%" -T "tracknumber=%tracknr%" -T "genre=%genre%" %source%
TOC of the extracted CD
Track | Start | Length | Start sector | End sector---------------------------------------------------------1 | 0:00.00 | 9:20.35 | 0 | 420342 | 9:20.35 | 5:47.28 | 42035 | 680873 | 15:07.63 | 2:25.02 | 68088 | 789644 | 17:32.65 | 6:39.13 | 78965 | 1089025 | 24:12.03 | 12:52.17 | 108903 | 1668196 | 37:04.20 | 8:39.33 | 166820 | 2057777 | 45:43.53 | 6:32.42 | 205778 | 2352198 | 52:16.20 | 5:26.46 | 235220 | 259715
Range status and errors
Selected range
Filename F:\Musique\Rosenberg, Hilding\Rosenberg_Symphonies3and6_WesterbergAndBlomstedt\Hilding Rosenberg - Symphonies 3 & 6 - Westerberg, Blomstedt.wav
Peak level 100.0 %Extraction speed 11.1 XRange quality 100.0 %Copy CRC 2DF9D665Copy OK
No errors occurred
End of status report
==== Log checksum 8D8D8E3FE4A8395C1F8B8EEFCD83144C5803F4B6294CF6A724FAE9EDE162E850 ====



Показать сообщения:    

Текущее время: 05-Дек 19:33

Часовой пояс: UTC + 3


Вы не можете начинать темы
Вы не можете отвечать на сообщения
Вы не можете редактировать свои сообщения
Вы не можете удалять свои сообщения
Вы не можете голосовать в опросах
Вы не можете прикреплять файлы к сообщениям
Вы не можете скачивать файлы