(Classical) Hilding Rosenberg - Symphony 3 & 6 (Mario Venzago, Gothenburg SO) - 2010, FLAC (image+.cue) lossless


 

[Цитировать]

Hilding Rosenberg - Symphony 3 & 6 (Mario Venzago, Gothenburg SO)
Жанр: Classical
Год издания диска: 2010
Издатель (лейбл): BIS
Номер по каталогу:
Аудиокодек: FLAC
Тип рипа: image+.cue
Битрейт аудио: lossless
Продолжительность: 56:00
Источник: скачано из сети
Наличие сканов в содержимом раздачи: да
Треклист:
01. Symphony 6 'Semplice' - I. Poco adagio [0:07:54.71]
02. II. Alla marcia [0:06:25.34]
03. III. Recitativo [0:02:18.59]
04. IV. Inno [0:06:22.61]
05. Symphony 3 - I. Moderato, allegro [0:12:11.57]
06. II. Andante sostenuto [0:08:15.08]
07. III. Allegro con fuoco [0:07:09.60]
08. IV. Andante semplice [0:05:22.13]
Исполнители:
Gothenburg SO
Christian Mandeal

LOG EAC

Exact Audio Copy V1.0 beta 3 from 29. August 2011
EAC extraction logfile from 10. February 2014, 23:23
Hilding Rosenberg / Symphony 3 & 6 (Mario Venzago, Gothenburg SO)
Used drive : TSSTcorpCDDVDW SH-S223C Adapter: 2 ID: 1
Read mode : SecureUtilize accurate stream : YesDefeat audio cache : YesMake use of C2 pointers : No
Read offset correction : 697Overread into Lead-In and Lead-Out : NoFill up missing offset samples with silence : YesDelete leading and trailing silent blocks : NoNull samples used in CRC calculations : YesUsed interface : Native Win32 interface for Win NT & 2000
Used output format : User Defined EncoderSelected bitrate : 896 kBit/sQuality : HighAdd ID3 tag : NoCommand line compressor : C:\Program Files (x86)\Exact Audio Copy\FLAC\FLAC.EXEAdditional command line options : -V -0 -T "COMMENT=Ripped by Tapaz9" -T "artist=%artist%" -T "title=%title%" -T "album=%albumtitle%" -T "date=%year%" -T "tracknumber=%tracknr%" -T "genre=%genre%" %source%
TOC of the extracted CD
Track | Start | Length | Start sector | End sector---------------------------------------------------------1 | 0:00.00 | 7:54.71 | 0 | 356202 | 7:54.71 | 6:25.34 | 35621 | 645293 | 14:20.30 | 2:18.59 | 64530 | 749384 | 16:39.14 | 6:22.61 | 74939 | 1036495 | 23:02.00 | 12:11.57 | 103650 | 1585316 | 35:13.57 | 8:15.08 | 158532 | 1956647 | 43:28.65 | 7:09.60 | 195665 | 2278998 | 50:38.50 | 5:22.13 | 227900 | 252062
Range status and errors
Selected range
Filename F:\Musique\Rosenberg, Hilding\Rosenberg_Symphonies3and6_Venzago\Hilding Rosenberg - Symphony 3 & 6 (Mario Venzago, Gothenburg SO).wav
Peak level 100.0 %Extraction speed 14.0 XRange quality 99.9 %Copy CRC 12DAEF9BCopy OK
No errors occurred
End of status report
==== Log checksum FAF67FDC246A10F4F12DC783E86722662B4293ECDF9CCCA11F8731619AFDC669 ====



Показать сообщения:    

Текущее время: 11-Дек 09:07

Часовой пояс: UTC + 3


Вы не можете начинать темы
Вы не можете отвечать на сообщения
Вы не можете редактировать свои сообщения
Вы не можете удалять свои сообщения
Вы не можете голосовать в опросах
Вы не можете прикреплять файлы к сообщениям
Вы не можете скачивать файлы