(Classical) Валентин Сильвестров - Кич-музыка; Струнный квартет №1; Симфония №5 - Ирина Постникова, Квартет имени Лысенко, Симфонический Оркестр Киевской консерватории, Роман Кофман - 1997, FLAC (image+.cue) lossless


 

[Цитировать]

Валентин Сильвестров - Кич-музыка; Струнный квартет №1; Симфония №5 - Ирина Постникова, Квартет имени Лысенко, Симфонический Оркестр Киевской консерватории, Роман Кофман
Жанр: Classical
Год издания диска: 1997
Издатель (лейбл): BMG Classics
Дата записи: 1980, 1986
Аудиокодек: FLAC
Тип рипа: image+.cue
Битрейт аудио: lossless
Продолжительность: 71:44
Источник: собственный рип
Наличие сканов в содержимом раздачи: да
Треклист:
Валентин Сильвестров (1936)
[1] Две пьесы из 'Кич-музыки'
Ирина Постникова фортепиано
[2] Струнный квартет №1
Квартет имени Лысенко
[3] Симфония №5
Симфонический Оркестр Киевской консерватории
Роман Кофман

Исполнители:
Ирина Постникова фортепиано
Квартет имени Лысенко
Симфонический Оркестр Киевской консерватории
Роман Кофман

Лог создания рипа

Exact Audio Copy V1.0 beta 3 from 29. August 2011
EAC extraction logfile from 12. April 2014, 18:29
Kiev Conservatoire Symphony Orchestra, Roman Kofman / Silvestrov - String Quartet No.1; Symphony No.5
Used drive : HL-DT-STDVDRAM GSA-4083N Adapter: 1 ID: 0
Read mode : SecureUtilize accurate stream : YesDefeat audio cache : YesMake use of C2 pointers : No
Read offset correction : 667Overread into Lead-In and Lead-Out : NoFill up missing offset samples with silence : YesDelete leading and trailing silent blocks : NoNull samples used in CRC calculations : YesUsed interface : Native Win32 interface for Win NT & 2000
Used output format : User Defined EncoderSelected bitrate : 896 kBit/sQuality : HighAdd ID3 tag : NoCommand line compressor : C:\Program Files\Exact Audio Copy\Flac\flac.exeAdditional command line options : -V -8 %source%
TOC of the extracted CD
Track | Start | Length | Start sector | End sector --------------------------------------------------------- 1 | 0:00.00 | 6:37.25 | 0 | 29799 2 | 6:37.25 | 18:11.62 | 29800 | 111686 3 | 24:49.12 | 46:52.25 | 111687 | 322611
Range status and errors
Selected range
Filename J:\New Music\Silvestrov - Strinq Quartet No.1; Symphony No.5\Silvestrov - String Quartet No.1; Symphony No.5.wav
Peak level 98.0 % Extraction speed 2.7 X Range quality 99.9 % Test CRC 454EF682 Copy CRC 454EF682 Copy OK
No errors occurred
AccurateRip summary
Track 1 cannot be verified as accurate (confidence 1) [FA3C2DAD], AccurateRip returned [AEBB45FC] (AR v2)Track 2 cannot be verified as accurate (confidence 1) [DF748BF3], AccurateRip returned [204ACC51] (AR v2)Track 3 cannot be verified as accurate (confidence 1) [E35FEF16], AccurateRip returned [BAC7A100] (AR v2)
No tracks could be verified as accurateYou may have a different pressing from the one(s) in the database
End of status report
==== Log checksum 2BA2333AC3B12AD4D4F0DE27D860747939073063FB26320DEF20F919A2229C28 ====



Показать сообщения:    

Текущее время: 11-Дек 03:21

Часовой пояс: UTC + 3


Вы не можете начинать темы
Вы не можете отвечать на сообщения
Вы не можете редактировать свои сообщения
Вы не можете удалять свои сообщения
Вы не можете голосовать в опросах
Вы не можете прикреплять файлы к сообщениям
Вы не можете скачивать файлы