(Classical/Symphony) Дмитрий Шостакович - Симфония № 10 / Dmitri Shostakovich - Symphony No. 10 Op. 93 (Berliner Philharmoniker, Herbert von Karajan) - 1982/2006, FLAC (image+.cue) lossless


 

[Цитировать]

Д.Д.Шостакович - Симфония № 10 / Dmitri Shostakovich - Symphony No. 10 Op. 93 (Berliner Philharmoniker, Herbert von Karajan)
Жанр: Classical/Symphony
Страна-производитель диска: Германия
Год издания диска: 1982/2006
Издатель (лейбл): Deutsche Grammophon
Номер по каталогу: 00289 477 5909
Дата записи: 2/1981, Berlin
Аудиокодек: FLAC
Тип рипа: image+.cue
Битрейт аудио: lossless
Продолжительность: 51'43
Источник: собственный рип
Наличие сканов в содержимом раздачи: да
Треклист:
Дмитрий Шостакович / Dmitri Shostakovich (1906-1975)
Symphony No. 10 in E Minor, Op. 93
01. 1. Moderato [0:22:35.00]
02. 2. Allegro [0:04:16.00]
03. 3. Allegretto [0:11:44.00]
04. 4. Andante - Allegro [0:13:08.00]
Исполнители:
Berliner Philharmoniker
Herbert von Karajan

Лог создания рипа

Exact Audio Copy V1.0 beta 3 from 29. August 2011
Отчёт EAC об извлечении, выполненном 12. июня 2014, 22:31
Berliner Philharmoniker, Herbert von Karajan / Shostakovich: Symphony No.10
Дисковод: HL-DT-STDVDRAM GU71N Adapter: 2 ID: 0
Режим чтения : ДостоверностьИспользование точного потока : ДаОтключение кэша аудио : ДаИспользование указателей C2 : Нет
Коррекция смещения при чтении : 6Способность читать области Lead-in и Lead-out : НетЗаполнение пропущенных сэмплов тишиной : ДаУдаление блоков с тишиной в начале и конце : НетПри вычислениях CRC использовались нулевые сэмплы : ДаИнтерфейс : Встроенный Win32-интерфейс для Win NT/2000
Выходной формат : Пользовательский кодировщикВыбранный битрейт : 1024 kBit/sКачество : ВысокийДобавление ID3-тега : НетУтилита сжатия : C:\Program Files (x86)\Exact Audio Copy\Flac\flac.exeДополнительные параметры : -8 -V -T "ALBUMARTIST=%albumartist%" -T "ALBUM=%albumtitle%" -T "DATE=%year%" -T "TRACKTOTAL=%numtracks%" -T "GENRE=%genre%" -T "COMMENT=%comment%" -T "PERFORMER=%albuminterpret%" -T "COMPOSER=%composer%" %source% -o %dest%
TOC извлечённого CD
Трек | Старт | Длительность | Начальный сектор | Конечный сектор --------------------------------------------------------------------- 1 | 0:00.33 | 22:35.00 | 33 | 101657 2 | 22:35.33 | 4:16.00 | 101658 | 120857 3 | 26:51.33 | 11:44.00 | 120858 | 173657 4 | 38:35.33 | 13:08.00 | 173658 | 232757
Характеристики диапазона извлечения и сообщения об ошибках
Выбранный диапазон
Имя файла H:\Rips\Shostakovich - Symphony No.10 - Berliner Philharmoniker, Herbert von Karajan DG (1981)\Shostakovich - Symphony No.10.wav
Пиковый уровень 99.9 % Скорость извлечения 1.9 X Качество диапазона 100.0 % CRC теста F2FFAB68 CRC копии F2FFAB68 Копирование... OK
Ошибок не произошло
AccurateRip: сводка
Трек 1 : извлечено точно (доверие 25) [3BB02048] (AR v2)Трек 2 : извлечено точно (доверие 25) [E17723A5] (AR v2)Трек 3 : извлечено точно (доверие 25) [1AEA332D] (AR v2)Трек 4 : извлечено точно (доверие 25) [EB2CBE48] (AR v2)
Все треки извлечены точно
Конец отчёта
==== Контрольная сумма отчёта 551F847E6A3C3FD8C532D9A1C9588C59D79BF83142A3919219A957A5DD1FD049 ====

Содержание индексной карты (.CUE)

REM GENRE ClassicalREM DATE 1982REM DISCID 2A0C1F04REM COMMENT "ExactAudioCopy v1.0b3"PERFORMER "Berliner Philharmoniker, Herbert von Karajan"TITLE "Shostakovich: Symphony No.10"FILE "Shostakovich - Symphony No.10.flac" WAVE TRACK 01 AUDIO TITLE "Symphony No. 10 in E Minor, Op. 93 - 1. Moderato" PERFORMER "Berliner Philharmoniker, Herbert von Karajan" INDEX 00 00:00:00 INDEX 01 00:00:33 TRACK 02 AUDIO TITLE "Symphony No. 10 in E Minor, Op. 93 - 2. Allegro" PERFORMER "Berliner Philharmoniker, Herbert von Karajan" INDEX 01 22:35:33 TRACK 03 AUDIO TITLE "Symphony No. 10 in E Minor, Op. 93 - 3. Allegretto" PERFORMER "Berliner Philharmoniker, Herbert von Karajan" INDEX 01 26:51:33 TRACK 04 AUDIO TITLE "Symphony No. 10 in E Minor, Op. 93 - 4. Andante - Allegro" PERFORMER "Berliner Philharmoniker, Herbert von Karajan" INDEX 01 38:35:33



Показать сообщения:    

Текущее время: 10-Дек 07:57

Часовой пояс: UTC + 3


Вы не можете начинать темы
Вы не можете отвечать на сообщения
Вы не можете редактировать свои сообщения
Вы не можете удалять свои сообщения
Вы не можете голосовать в опросах
Вы не можете прикреплять файлы к сообщениям
Вы не можете скачивать файлы