(Classical) Akira Ifukube (Акира Ифукубе) - Symphonic Fantasias Nos.1 & 4, Japanese Rhapsody, Ballata sinfonica, Triptyque Aborigene | Akutugawa Yasushi - Ballad on the theme of Godzilla | Toshiro Mayuzumi - Homage a A.I. - 2014, FLAC (image+.cue


 

[Цитировать]

Akira Ifukube - Best Classics
Жанр: Classical
Страна-производитель диска: Japan
Год издания диска: 2014
Издатель (лейбл): Universal Music
Номер по каталогу: UPCY-6828
Аудиокодек: FLAC
Тип рипа: image+.cue
Битрейт аудио: lossless
Продолжительность: 1:17'38"
Источник: собственный рип
Наличие сканов в содержимом раздачи: да
Треклист:
Akutugawa Yasushi
01. 'Ballad on the theme of Godzilla'
Shinsei Nihon Symphony Orchestra
Maki Ishii

Akira Ifukube
02. Symphonic Fantasia No.1
Tokyo Symphony Orchestra
Kazuhiko Komatsu

Japanese Rhapsody
03. I. Nocturne
04. II. Fete
New Symphony Orchestra
Kazuhiro Koizumi

Ballata sinfonica
05. I. Allegro capriccioso
06. II. Andante rapsodico
Tokyo Symphony Orchestra
Kazuo Yamada

Triptyque Aborigene
07. I. Payses, 'Tempo di Jimkuu'
08. II. Timbe
09. III. Pakkai 'Chant d'Aino'
Solisten '85
10. Symphonic Fantasia No.4 'Godzilla vs King Ghidora'
Shinsei Nihon Symphony Orchestra
Maki Ishii

Toshiro Mayuzumi
11. 'Homage a A.I.'
Shinsei Nihon Symphony Orchestra
Toshiro Mayuzumi

-

Лог создания рипа

Exact Audio Copy V1.0 beta 1 from 15. November 2010
EAC extraction logfile from 12. July 2014, 20:48
Akira Ifukube / Best Classics
Used drive : Optiarc DVD RW AD-7203A Adapter: 4 ID: 1
Read mode : SecureUtilize accurate stream : YesDefeat audio cache : YesMake use of C2 pointers : No
Read offset correction : 48Overread into Lead-In and Lead-Out : NoFill up missing offset samples with silence : YesDelete leading and trailing silent blocks : NoNull samples used in CRC calculations : YesUsed interface : Native Win32 interface for Win NT & 2000
Used output format : User Defined EncoderSelected bitrate : 128 kBit/sQuality : HighAdd ID3 tag : NoCommand line compressor : C:\Program Files\FLAC\flac.exeAdditional command line options : -T "COMMENT=Ripped by GFox" -8 -V %s
TOC of the extracted CD
Track | Start | Length | Start sector | End sector --------------------------------------------------------- 1 | 0:00.00 | 1:20.01 | 0 | 6000 2 | 1:20.01 | 14:55.56 | 6001 | 73181 3 | 16:15.57 | 6:59.50 | 73182 | 104656 4 | 23:15.32 | 8:13.52 | 104657 | 141683 5 | 31:29.09 | 7:44.10 | 141684 | 176493 6 | 39:13.19 | 7:37.73 | 176494 | 210841 7 | 46:51.17 | 3:45.53 | 210842 | 227769 8 | 50:36.70 | 2:46.23 | 227770 | 240242 9 | 53:23.18 | 5:40.73 | 240243 | 265815 10 | 59:04.16 | 16:48.66 | 265816 | 341481 11 | 75:53.07 | 1:45.40 | 341482 | 349396
Range status and errors
Selected range
Filename D:\EAC\Akira Ifukube - Best Classics.wav
Peak level 100.0 % Extraction speed 0.0 X Range quality 100.0 % Test CRC B75BD2FD Copy CRC B75BD2FD Copy OK
No errors occurred
AccurateRip summary
Track 1 not present in databaseTrack 2 not present in databaseTrack 3 not present in databaseTrack 4 not present in databaseTrack 5 not present in databaseTrack 6 not present in databaseTrack 7 not present in databaseTrack 8 not present in databaseTrack 9 not present in databaseTrack 10 not present in databaseTrack 11 not present in database
None of the tracks are present in the AccurateRip database
End of status report
==== Log checksum 186A15300AFA5B4F2407D577A3AE327BDAE590130F1D8DDCE4A5AECD818BE21B ====
-Доп. информация: Сборник, посвященный столетию со дня рождения суперпопулярного у себя на родине японского композитора Акиры Ифукубе (1914-2006), автора саундтреков к Годзилле и другим монстр-муви. Основанная на народных мотивах, его музыка легка и мелодична, она нетороплива, словно струйка воды в японском саду, и медитативна, словно любование цветением сакуры. Помимо музыки собственно маэстро на диске представлены два трибьюта современных японских композиторов на наиболее известные музыкальные темы Ифукубе.-



Показать сообщения:    

Текущее время: 09-Дек 08:48

Часовой пояс: UTC + 3


Вы не можете начинать темы
Вы не можете отвечать на сообщения
Вы не можете редактировать свои сообщения
Вы не можете удалять свои сообщения
Вы не можете голосовать в опросах
Вы не можете прикреплять файлы к сообщениям
Вы не можете скачивать файлы