(Classical) Ludvig Irgens-Jensen - Symphonic Works (Trondheim Symphony Orchestra, Eivind Adaland) - 2012, FLAC (image+.cue) lossless


 

[Цитировать]

Ludvig Irgens-Jensen - Symphonic Works (Trondheim Symphony, Eivind Adaland)
Жанр: Classical
Год издания диска: 2012
Издатель (лейбл): CPO
Номер по каталогу: 777 347-2
Аудиокодек: FLAC
Тип рипа: image+.cue
Битрейт аудио: lossless
Продолжительность: 02:02:55
Источник: скачано из сети
Наличие сканов в содержимом раздачи: да
Исполнители:
Trondheim Symphony Orchestra
Eivind Adaland
Треклист:
CD 1:
01. Tema con variazioni - Thema [0:02:44.07]
02. Sostenuto ed espressivo [0:02:05.60]
03. Allegretto grazioso [0:01:24.30]
04. Poco mosso ed agitato [0:01:07.00]
05. Tranquillo [0:01:26.72]
06. Allegro, un poco burlesco [0:01:26.43]
07. Allegro enfatico [0:01:35.50]
08. Andante espressivo [0:01:16.73]
09. Vivace [0:00:58.24]
10. Presto giocoso [0:01:01.55]
11. Pesante, tempo moderato [0:01:27.60]
12. Mesto, poco rubato [0:01:16.56]
13. Allegro molto [0:01:55.05]
14. Grave [0:01:22.26]
15. Molto mosso [0:00:26.07]
16. Allegro energico [0:00:38.73]
17. Allegro animato [0:03:04.34]
18. Partita Sinfonica - I. Prelude [0:05:21.00]
19. II. Bol's Song [0:02:46.00]
20. III. Presto con fuoco [0:04:56.00]
21. IV. Epilogue [0:04:18.00]
22. Air [0:03:06.00]
23. Kong Baldvines Armring Suite - I. Scherzo [0:01:46.00]
24. II. Intermezzo [0:04:33.00]
25. III. Galgeberget, Andante misterioso [0:02:02.00]
26. IV. Ballet [0:04:54.68]
CD 2:
01. Symphony in D minor - I. Allegro [0:16:30.00]
02. II. Andante [0:11:51.00]
03. Rondo marziale [0:15:14.00]
04. Passacaglia [0:20:23.68]

LOG EAC:CD1:

Exact Audio Copy V1.0 beta 3 from 29. August 2011
EAC extraction logfile from 31. January 2013, 0:25
Ludvig Irgens-Jensen / Symphonic Works CD 1(Trondheim Symphony, Adaland)
Used drive : TSSTcorpCDDVDW SH-S223C Adapter: 2 ID: 1
Read mode : SecureUtilize accurate stream : YesDefeat audio cache : YesMake use of C2 pointers : No
Read offset correction : 697Overread into Lead-In and Lead-Out : NoFill up missing offset samples with silence : YesDelete leading and trailing silent blocks : NoNull samples used in CRC calculations : YesUsed interface : Native Win32 interface for Win NT & 2000
Used output format : User Defined EncoderSelected bitrate : 896 kBit/sQuality : HighAdd ID3 tag : NoCommand line compressor : C:\Program Files (x86)\Exact Audio Copy\FLAC\FLAC.EXEAdditional command line options : -V -0 -T "COMMENT=Ripped by Tapaz9" -T "artist=%artist%" -T "title=%title%" -T "album=%albumtitle%" -T "date=%year%" -T "tracknumber=%tracknr%" -T "genre=%genre%" %source%
TOC of the extracted CD
Track | Start | Length | Start sector | End sector---------------------------------------------------------1 | 0:00.00 | 2:44.07 | 0 | 123062 | 2:44.07 | 2:05.60 | 12307 | 217413 | 4:49.67 | 1:24.30 | 21742 | 280714 | 6:14.22 | 1:07.00 | 28072 | 330965 | 7:21.22 | 1:26.72 | 33097 | 396186 | 8:48.19 | 1:26.43 | 39619 | 461117 | 10:14.62 | 1:35.50 | 46112 | 532868 | 11:50.37 | 1:16.73 | 53287 | 590599 | 13:07.35 | 0:58.24 | 59060 | 6343310 | 14:05.59 | 1:01.55 | 63434 | 6806311 | 15:07.39 | 1:27.60 | 68064 | 7464812 | 16:35.24 | 1:16.56 | 74649 | 8040413 | 17:52.05 | 1:55.05 | 80405 | 8903414 | 19:47.10 | 1:22.26 | 89035 | 9521015 | 21:09.36 | 0:26.07 | 95211 | 9716716 | 21:35.43 | 0:38.73 | 97168 | 10009017 | 22:14.41 | 3:04.34 | 100091 | 11392418 | 25:19.00 | 5:21.00 | 113925 | 13799919 | 30:40.00 | 2:46.00 | 138000 | 15044920 | 33:26.00 | 4:56.00 | 150450 | 17264921 | 38:22.00 | 4:18.00 | 172650 | 19199922 | 42:40.00 | 3:06.00 | 192000 | 20594923 | 45:46.00 | 1:46.00 | 205950 | 21389924 | 47:32.00 | 4:33.00 | 213900 | 23437425 | 52:05.00 | 2:02.00 | 234375 | 24352426 | 54:07.00 | 4:54.68 | 243525 | 265642
Range status and errors
Selected range
Filename F:\Musique\Irgens-Jensen, Ludvig\Irgens_Jensen_SymphonicWorks\CD 1\Ludvig Irgens-Jensen - Symphonic Works CD 1(Trondheim Symphony, Adaland).wav
Peak level 99.3 %Extraction speed 14.6 XRange quality 100.0 %Copy CRC DB662B80Copy OK
No errors occurred
End of status report
==== Log checksum E3B227707162BA168C7ED913C49CB18EDCC9B57C6B5DE9C26C3B2CDB9CE04C01 ====

CD2:

Exact Audio Copy V1.0 beta 3 from 29. August 2011
EAC extraction logfile from 31. January 2013, 0:36
Ludvig Irgens-Jensen / Symphonic Works CD 2 (Trondheim Symphony, Adaland)
Used drive : TSSTcorpCDDVDW SH-S223C Adapter: 2 ID: 1
Read mode : SecureUtilize accurate stream : YesDefeat audio cache : YesMake use of C2 pointers : No
Read offset correction : 697Overread into Lead-In and Lead-Out : NoFill up missing offset samples with silence : YesDelete leading and trailing silent blocks : NoNull samples used in CRC calculations : YesUsed interface : Native Win32 interface for Win NT & 2000
Used output format : User Defined EncoderSelected bitrate : 896 kBit/sQuality : HighAdd ID3 tag : NoCommand line compressor : C:\Program Files (x86)\Exact Audio Copy\FLAC\FLAC.EXEAdditional command line options : -V -0 -T "COMMENT=Ripped by Tapaz9" -T "artist=%artist%" -T "title=%title%" -T "album=%albumtitle%" -T "date=%year%" -T "tracknumber=%tracknr%" -T "genre=%genre%" %source%
TOC of the extracted CD
Track | Start | Length | Start sector | End sector---------------------------------------------------------1 | 0:00.00 | 16:30.00 | 0 | 742492 | 16:30.00 | 11:51.00 | 74250 | 1275743 | 28:21.00 | 15:14.00 | 127575 | 1961244 | 43:35.00 | 20:23.68 | 196125 | 287917
Range status and errors
Selected range
Filename F:\Musique\Irgens-Jensen, Ludvig\Irgens_Jensen_SymphonicWorks\CD 2\Ludvig Irgens-Jensen - Symphonic Works CD 2 (Trondheim Symphony, Adaland).wav
Peak level 99.1 %Extraction speed 15.0 XRange quality 99.9 %Copy CRC C72D01A1Copy OK
No errors occurred
End of status report
==== Log checksum E1263B27CD6C60D989307BA35DB20777BDEC356CBDFB18E044D961E134902FEB ====



Показать сообщения:    

Текущее время: 04-Дек 23:18

Часовой пояс: UTC + 3


Вы не можете начинать темы
Вы не можете отвечать на сообщения
Вы не можете редактировать свои сообщения
Вы не можете удалять свои сообщения
Вы не можете голосовать в опросах
Вы не можете прикреплять файлы к сообщениям
Вы не можете скачивать файлы