(Classical) Wolfgang Amadeus Mozart - Symphony No36 / Joseph Haydn - Symphony No94 / Alban Berg - Three fragments from Wozzeck (Carlos Kleiber) - 2006, FLAC (image+.cue) lossless


 

[Цитировать]

Mozart - Symphony No36; Haydn - Symphony No94; Berg - Three fragments from ''Wozzeck"
Жанр: Classical
Страна-производитель диска: Канада
Год издания диска: 2006
Издатель (лейбл): Palexa
Номер по каталогу: CD-0539
Дата записи: 1982-1988
Аудиокодек: FLAC
Тип рипа: image+.cue
Битрейт аудио: lossless
Продолжительность: 69:00
Источник: собственный рип
Наличие сканов в содержимом раздачи: нет
Треклист:
Wolfgang Amadeus Mozart
1. Symphony No. 36 in C major ('Linz'), K. 425: 1. Adagio - Allegro spiritoso [10:43]
2. 2. Andante [07:06]
3. 3. Menuetto [03:46]
4. 4. Presto [07:36]
Joseph Haydn
5. Symphony No. 94 in G major ('Surprise'), H. 1/94: 1. Adagio - Vivace assai [06:31]
6. 2. Andante [05:33]
7. 3. Menuet: Allegro molto - Trio - Menuet [04:13]
8. 4. Finale: Allegro di molto [03:42]
Alban Berg
9. Wozzeck, opera, Op. 7: 1. Act 1, Scene 2 - 3 [06:57] *
10. 2. Act 3, Scene 1 [05:44] *
11. 3. Act 3, Scene 4 - 5 [07:06] *
Исполнители:
Dunja Vejzovic (soprano) *
Vienna Boys Chorus *
Vienna Philharmonic Orchestra
Carlos Kleiber

Лог создания рипа

Exact Audio Copy V1.0 beta 3 from 29. August 2011
Отчёт EAC об извлечении, выполненном 11. июля 2014, 18:40
Carlos Kleiber / Mozart, Haydn, Berg
Дисковод: PIONEER BD-RW BDR-208D Adapter: 3 ID: 0
Режим чтения : Достоверность
Использование точного потока : Да
Отключение кэша аудио : Да
Использование указателей C2 : Нет
Коррекция смещения при чтении : 667
Способность читать области Lead-in и Lead-out : Нет
Заполнение пропущенных сэмплов тишиной : Да
Удаление блоков с тишиной в начале и конце : Нет
При вычислениях CRC использовались нулевые сэмплы : Да
Интерфейс : Встроенный Win32-интерфейс для Win NT/2000
Выходной формат : Пользовательский кодировщик
Выбранный битрейт : 768 kBit/s
Качество : Высокий
Добавление ID3-тега : Нет
Утилита сжатия : C:\Program Files (x86)\Exact Audio Copy\FLAC\FLAC.EXE
Дополнительные параметры : -6 -V -T "ARTIST=%artist%" -T "TITLE=%title%" -T "ALBUM=%albumtitle%" -T "DATE=%year%" -T "TRACKNUMBER=%tracknr%" -T "GENRE=%genre%" -T "COMMENT=%comment%" -T "BAND=%albuminterpret%" -T "ALBUMARTIST=%albuminterpret%" -T "COMPOSER=%composer%" %haslyrics%--tag-from-file=LYRICS="%lyricsfile%"%haslyrics% -T "DISCNUMBER=%cdnumber%" -T "TOTALDISCS=%totalcds%" -T "TOTALTRACKS=%numtracks%" %hascover%--picture="%coverfile%"%hascover% %source% -o %dest%
TOC извлечённого CD
Трек | Старт | Длительность | Начальный сектор | Конечный сектор
---------------------------------------------------------------------
1 | 0:00.00 | 10:42.22 | 0 | 48171
2 | 10:42.22 | 7:06.16 | 48172 | 80137
3 | 17:48.38 | 3:46.06 | 80138 | 97093
4 | 21:34.44 | 7:41.28 | 97094 | 131696
5 | 29:15.72 | 6:31.06 | 131697 | 161027
6 | 35:47.03 | 5:52.57 | 161028 | 187484
7 | 41:39.60 | 4:12.52 | 187485 | 206436
8 | 45:52.37 | 3:48.20 | 206437 | 223556
9 | 49:40.57 | 6:57.26 | 223557 | 254857
10 | 56:38.08 | 5:44.09 | 254858 | 280666
11 | 62:22.17 | 7:21.29 | 280667 | 313770
Характеристики диапазона извлечения и сообщения об ошибках
Выбранный диапазон
Имя файла C:\Users\user\Desktop\Carlos Kleiber - Mozart, Haydn, Berg.wav
Пиковый уровень 100.0 %
Скорость извлечения 7.7 X
Качество диапазона 100.0 %
CRC теста 0CB9A1D4
CRC копии 0CB9A1D4
Копирование... OK
Ошибок не произошло
AccurateRip: сводка
Трек 1 : извлечено точно (доверие 2) [D42ED3DE] (AR v2)
Трек 2 : извлечено точно (доверие 2) [7AC4AEDE] (AR v2)
Трек 3 : извлечено точно (доверие 2) [07D42FC4] (AR v2)
Трек 4 : извлечено точно (доверие 2) [0781CCAB] (AR v2)
Трек 5 : извлечено точно (доверие 2) [B694BC4A] (AR v2)
Трек 6 : извлечено точно (доверие 2) [1D24C4F3] (AR v2)
Трек 7 : извлечено точно (доверие 2) [72EE4F09] (AR v2)
Трек 8 : извлечено точно (доверие 2) [0FBDFC15] (AR v2)
Трек 9 : извлечено точно (доверие 2) [44111E5E] (AR v2)
Трек 10 : извлечено точно (доверие 2) [9EB09225] (AR v2)
Трек 11 : извлечено точно (доверие 2) [DFF20F57] (AR v2)
Все треки извлечены точно
Конец отчёта
==== Контрольная сумма отчёта 4BAEB17AD5BD1913A577B0404DAD6555E4806E53D7942971EC02660115703E2B ====



Показать сообщения:    

Текущее время: 09-Дек 18:29

Часовой пояс: UTC + 3


Вы не можете начинать темы
Вы не можете отвечать на сообщения
Вы не можете редактировать свои сообщения
Вы не можете удалять свои сообщения
Вы не можете голосовать в опросах
Вы не можете прикреплять файлы к сообщениям
Вы не можете скачивать файлы