(Symphonies) Christoph Gluck - Symphonies / Глюк - Симфонии (L'Orfeo Barockorchester, Michi Gaigg) - 2011, FLAC (tracks+.cue) lossless


 

[Цитировать]

Christoph Willibald Gluck - Symphonies (L'Orfeo Barockorchester, Michi Gaigg)

Жанр: Symphonies
Страна-производитель диска: Made in Germany
Год издания диска: 2011
Издатель (лейбл): CPO
Номер по каталогу: 777 411-2
Дата записи: 2007
Аудиокодек: FLAC
Тип рипа: tracks+.cue
Битрейт аудио: lossless
Продолжительность: 57:18
Источник: релизер
сайт-источник/ник/другое: Duckjammy
Наличие сканов в содержимом раздачи: да
Треклист:

скрытый текст

Symphony in G major
1. I. Allegro
2. II. Andante
3. III. Allegro
Symphony in D major
4. I. Allegro capriccioso
5. II. Menuetto
Symphony in A major
6. I. Allegro
7. II. Andante
8. III. Allegro
Symphony in F major
9. Symphony in F major: Allegro
10. I. Andante
11. II. Alla breve
12. III. Presto
Symphony in D major
13. I. Andante
14. II. Allegro
Исполнители:

скрытый текст

Christoph Willibald Gluck - 5 Symphonies
L'Orfeo Barockorchester
Conductor: Michi Gaigg

Лог создания рипа

Exact Audio Copy V1.0 beta 3 from 29. August 2011
EAC extraction logfile from 9. June 2014, 18:52
L'Orfeo Barockorchester / Gluck- Symphonies
Used drive : PLDS BD-RE DH-8B2SH Adapter: 0 ID: 0
Read mode : SecureUtilize accurate stream : YesDefeat audio cache : YesMake use of C2 pointers : No
Read offset correction : 6Overread into Lead-In and Lead-Out : NoFill up missing offset samples with silence : YesDelete leading and trailing silent blocks : NoNull samples used in CRC calculations : YesUsed interface : Native Win32 interface for Win NT & 2000Gap handling : Appended to previous track
Used output format : User Defined EncoderSelected bitrate : 1024 kBit/sQuality : HighAdd ID3 tag : NoCommand line compressor : C:\Program Files (x86)\FLAC\flac.exeAdditional command line options : -8 -V -T "ARTIST=%artist%" -T "TITLE=%title%" -T "ALBUM=%albumtitle%" -T "DATE=%year%" -T "TRACKNUMBER=%tracknr%" -T "GENRE=%genre%" -T "PERFORMER=%albuminterpret%" -T "COMPOSER=%composer%" %haslyrics%--tag-from-file=LYRICS="%lyricsfile%"%haslyrics% -T "ALBUMARTIST=%albumartist%" -T "DISCNUMBER=%cdnumber%" -T "TOTALDISCS=%totalcds%" -T "TOTALTRACKS=%numtracks%" -T "COMMENT=%comment%" %source% -o %dest%
TOC of the extracted CD
Track | Start | Length | Start sector | End sector --------------------------------------------------------- 1 | 0:00.02 | 6:55.49 | 2 | 31175 2 | 6:55.51 | 5:18.49 | 31176 | 55074 3 | 12:14.25 | 2:20.05 | 55075 | 65579 4 | 14:34.30 | 6:55.43 | 65580 | 96747 5 | 21:29.73 | 4:17.24 | 96748 | 116046 6 | 25:47.22 | 3:47.13 | 116047 | 133084 7 | 29:34.35 | 2:19.01 | 133085 | 143510 8 | 31:53.36 | 1:58.73 | 143511 | 152433 9 | 33:52.34 | 3:18.08 | 152434 | 167291 10 | 37:10.42 | 4:24.30 | 167292 | 187121 11 | 41:34.72 | 2:59.48 | 187122 | 200594 12 | 44:34.45 | 3:24.32 | 200595 | 215926 13 | 47:59.02 | 5:30.14 | 215927 | 240690 14 | 53:29.16 | 3:47.41 | 240691 | 257756
Track 1
Filename C:\EAC\01 Symphony in G major- Allegro.wav
Pre-gap length 0:00:02.02
Peak level 95.9 % Extraction speed 4.3 X Track quality 99.9 % Test CRC 5722FC34 Copy CRC 5722FC34 Accurately ripped (confidence 8) [C07173EA] (AR v2) Copy OK
Track 2
Filename C:\EAC\02 Symphony in G major- Andante.wav
Peak level 51.8 % Extraction speed 5.5 X Track quality 100.0 % Test CRC 45779505 Copy CRC 45779505 Accurately ripped (confidence 8) [339A28B4] (AR v2) Copy OK
Track 3
Filename C:\EAC\03 Symphony in G major- Allegro.wav
Peak level 95.9 % Extraction speed 3.9 X Track quality 99.9 % Test CRC DEF009BF Copy CRC DEF009BF Accurately ripped (confidence 8) [D68E7333] (AR v2) Copy OK
Track 4
Filename C:\EAC\04 Symphony in D major- Allegro capriccioso.wav
Pre-gap length 0:00:06.76
Peak level 70.0 % Extraction speed 6.5 X Track quality 100.0 % Test CRC FAC29B62 Copy CRC FAC29B62 Accurately ripped (confidence 8) [A81CDD80] (AR v2) Copy OK
Track 5
Filename C:\EAC\05 Symphony in D major- Menuetto.wav
Peak level 84.7 % Extraction speed 5.6 X Track quality 99.9 % Test CRC ACD0ADB0 Copy CRC ACD0ADB0 Accurately ripped (confidence 8) [62EA7EFF] (AR v2) Copy OK
Track 6
Filename C:\EAC\06 Symphony in A major- Allegro.wav
Pre-gap length 0:00:06.60
Peak level 96.2 % Extraction speed 6.9 X Track quality 100.0 % Test CRC 14D73559 Copy CRC 14D73559 Accurately ripped (confidence 8) [02CDB464] (AR v2) Copy OK
Track 7
Filename C:\EAC\07 Symphony in A major- Andante.wav
Peak level 36.6 % Extraction speed 6.5 X Track quality 100.0 % Test CRC E670CAD7 Copy CRC E670CAD7 Accurately ripped (confidence 8) [B2075FE7] (AR v2) Copy OK
Track 8
Filename C:\EAC\08 Symphony in A major- Allegro.wav
Peak level 96.3 % Extraction speed 6.4 X Track quality 100.0 % Test CRC 811593D1 Copy CRC 811593D1 Accurately ripped (confidence 8) [3AA4AC95] (AR v2) Copy OK
Track 9
Filename C:\EAC\09 Symphony in F major- Allegro.wav
Pre-gap length 0:00:06.57
Peak level 90.9 % Extraction speed 7.3 X Track quality 100.0 % Test CRC 1731AEE8 Copy CRC 1731AEE8 Accurately ripped (confidence 8) [7FBEE53D] (AR v2) Copy OK
Track 10
Filename C:\EAC\10 Symphony in F major- Andante.wav
Peak level 26.7 % Extraction speed 7.9 X Track quality 100.0 % Test CRC 20768766 Copy CRC 20768766 Accurately ripped (confidence 8) [2934AA2F] (AR v2) Copy OK
Track 11
Filename C:\EAC\11 Symphony in F major- Alla breve.wav
Peak level 39.9 % Extraction speed 6.0 X Track quality 99.9 % Test CRC 9E10F5F2 Copy CRC 9E10F5F2 Accurately ripped (confidence 8) [803DBFAD] (AR v2) Copy OK
Track 12
Filename C:\EAC\12 Symphony in F major- Presto.wav
Peak level 72.6 % Extraction speed 8.0 X Track quality 100.0 % Test CRC 7F19DD6D Copy CRC 7F19DD6D Accurately ripped (confidence 8) [E1BE107A] (AR v2) Copy OK
Track 13
Filename C:\EAC\13 Symphony in D major- Andante.wav
Pre-gap length 0:00:05.29
Peak level 40.1 % Extraction speed 8.8 X Track quality 100.0 % Test CRC C62B61A6 Copy CRC C62B61A6 Accurately ripped (confidence 8) [E51A1D52] (AR v2) Copy OK
Track 14
Filename C:\EAC\14 Symphony in D major- Allegro.wav
Peak level 64.0 % Extraction speed 8.7 X Track quality 100.0 % Test CRC 48E4A8DF Copy CRC 48E4A8DF Accurately ripped (confidence 8) [645F54B4] (AR v2) Copy OK
All tracks accurately ripped
No errors occurred
End of status report
==== Log checksum BD8197AD41247844BC9868DD79EDDD1C9633B93906238334FEF3EC90BD8958E7 ====

Содержание индексной карты (.CUE)

REM GENRE ClassicalREM DATE 2011REM DISCID CE0D6C0EREM COMMENT "ExactAudioCopy v1.0b3"CATALOG 0761203741120PERFORMER "L'Orfeo Barockorchester"TITLE "Gluck- Symphonies"FILE "01 Symphony in G major- Allegro.flac" WAVE TRACK 01 AUDIO TITLE "Symphony in G major: Allegro" PERFORMER "L'Orfeo Barockorchester" ISRC DEB200941101 FLAGS DCP PREGAP 00:00:02 INDEX 01 00:00:00FILE "02 Symphony in G major- Andante.flac" WAVE TRACK 02 AUDIO TITLE "Symphony in G major: Andante" PERFORMER "L'Orfeo Barockorchester" ISRC DEB200941102 FLAGS DCP INDEX 01 00:00:00FILE "03 Symphony in G major- Allegro.flac" WAVE TRACK 03 AUDIO TITLE "Symphony in G major: Allegro" PERFORMER "L'Orfeo Barockorchester" ISRC DEB200941103 FLAGS DCP INDEX 01 00:00:00FILE "04 Symphony in D major- Allegro capriccioso.flac" WAVE TRACK 04 AUDIO TITLE "Symphony in D major: Allegro capriccioso" PERFORMER "L'Orfeo Barockorchester" ISRC DEB200941104 FLAGS DCP INDEX 00 02:13:23 INDEX 01 00:00:00FILE "05 Symphony in D major- Menuetto.flac" WAVE TRACK 05 AUDIO TITLE "Symphony in D major: Menuetto" PERFORMER "L'Orfeo Barockorchester" ISRC DEB200941105 FLAGS DCP INDEX 01 00:00:00FILE "06 Symphony in A major- Allegro.flac" WAVE TRACK 06 AUDIO TITLE "Symphony in A major: Allegro" PERFORMER "L'Orfeo Barockorchester" ISRC DEB200941106 FLAGS DCP INDEX 00 04:10:54 INDEX 01 00:00:00FILE "07 Symphony in A major- Andante.flac" WAVE TRACK 07 AUDIO TITLE "Symphony in A major: Andante" PERFORMER "L'Orfeo Barockorchester" ISRC DEB200941107 FLAGS DCP INDEX 01 00:00:00FILE "08 Symphony in A major- Allegro.flac" WAVE TRACK 08 AUDIO TITLE "Symphony in A major: Allegro" PERFORMER "L'Orfeo Barockorchester" ISRC DEB200941108 FLAGS DCP INDEX 01 00:00:00FILE "09 Symphony in F major- Allegro.flac" WAVE TRACK 09 AUDIO TITLE "Symphony in F major: Allegro" PERFORMER "L'Orfeo Barockorchester" ISRC DEB200941109 FLAGS DCP INDEX 00 01:52:30 INDEX 01 00:00:00FILE "10 Symphony in F major- Andante.flac" WAVE TRACK 10 AUDIO TITLE "Symphony in F major: Andante" PERFORMER "L'Orfeo Barockorchester" ISRC DEB200941110 FLAGS DCP INDEX 01 00:00:00FILE "11 Symphony in F major- Alla breve.flac" WAVE TRACK 11 AUDIO TITLE "Symphony in F major: Alla breve" PERFORMER "L'Orfeo Barockorchester" ISRC DEB200941111 FLAGS DCP INDEX 01 00:00:00FILE "12 Symphony in F major- Presto.flac" WAVE TRACK 12 AUDIO TITLE "Symphony in F major: Presto" PERFORMER "L'Orfeo Barockorchester" ISRC DEB200941112 FLAGS DCP INDEX 01 00:00:00FILE "13 Symphony in D major- Andante.flac" WAVE TRACK 13 AUDIO TITLE "Symphony in D major: Andante" PERFORMER "L'Orfeo Barockorchester" ISRC DEB200941113 FLAGS DCP INDEX 00 03:19:10 INDEX 01 00:00:00FILE "14 Symphony in D major- Allegro.flac" WAVE TRACK 14 AUDIO TITLE "Symphony in D major: Allegro" PERFORMER "L'Orfeo Barockorchester" ISRC DEB200941114 FLAGS DCP INDEX 01 00:00:00



Показать сообщения:    

Текущее время: 04-Дек 00:51

Часовой пояс: UTC + 3


Вы не можете начинать темы
Вы не можете отвечать на сообщения
Вы не можете редактировать свои сообщения
Вы не можете удалять свои сообщения
Вы не можете голосовать в опросах
Вы не можете прикреплять файлы к сообщениям
Вы не можете скачивать файлы