(Classical) William Walton - Symphonies No. 1 & 2 (Martyn Brabbins, BBC Scottish Symphony Orchestra) - 2011, FLAC (tracks+.cue) lossless


 

[Цитировать]

William Walton - Symphonies (Martyn Brabbins, BBC Scottish Symphony Orchestra
Жанр: Classical
Год издания диска: 2011
Издатель (лейбл): Hyperion
Номер по каталогу: 67794
Аудиокодек: FLAC
Тип рипа: tracks+.cue
Битрейт аудио: lossless
Продолжительность: 01:18:03
Источник: скачано из сети
Наличие сканов в содержимом раздачи: да
Исполнители:
BBC Scottish Symphony Orchestra
Martyn Brabbins
Треклист:
1. Symphony No. 1 In B flat minor - I. Allegro assai (14:02)
2. II. Presto con malizia (06:14)
3. III. Andante con malinconia (11:25)
4. IV. Maestoso - Allegro, brioso e ardentemente - Vivacissimo - Maestoso (12:34)
5. Siesta (05:21)
6. Symphony No. 2 - I. Allegro molto (09:06)
7. II. Lento assai (10:12)
8. III. Passacaglia. Theme and Variations - Fugato - Coda (Scherzando) (09:09)

LOG EAC:

Exact Audio Copy V1.0 beta 2 from 29. April 2011
EAC extraction logfile from 21. January 2012, 16:21
William Walton / Symphonies (Brabbins)
Used drive : TSSTcorpCDDVDW TS-L632H Adapter: 1 ID: 0
Read mode : SecureUtilize accurate stream : YesDefeat audio cache : YesMake use of C2 pointers : No
Read offset correction : 6Overread into Lead-In and Lead-Out : NoFill up missing offset samples with silence : YesDelete leading and trailing silent blocks : NoNull samples used in CRC calculations : YesUsed interface : Installed external ASPI interfaceGap handling : Appended to previous track
Used output format : User Defined EncoderSelected bitrate : 128 kBit/sQuality : HighAdd ID3 tag : NoCommand line compressor : C:\Program Files\Exact Audio Copy\Flac\flac.exeAdditional command line options : -8 -V -T "ARTIST=%artist%" -T "TITLE=%title%" -T "ALBUM=%albumtitle%" -T "DATE=%year%" -T "TRACKNUMBER=%tracknr%" -T "GENRE=%genre%" -T "PERFORMER=%albuminterpret%" -T "COMPOSER=%composer%" %haslyrics%--tag-from-file=LYRICS
TOC of the extracted CD
Track | Start | Length | Start sector | End sector---------------------------------------------------------1 | 0:00.00 | 14:01.71 | 0 | 631452 | 14:01.71 | 6:14.31 | 63146 | 912263 | 20:16.27 | 11:24.66 | 91227 | 1425924 | 31:41.18 | 12:34.08 | 142593 | 1991505 | 44:15.26 | 5:21.10 | 199151 | 2232356 | 49:36.36 | 9:06.22 | 223236 | 2642077 | 58:42.58 | 10:12.11 | 264208 | 3101188 | 68:54.69 | 9:08.68 | 310119 | 351286
Track 1
Filename D:\William Walton - Symphonies (Brabbins)\01 - Symphony No. 1 In B flat minor - I. Allegro assai.wav
Pre-gap length 0:00:02.00
Peak level 100.0 %Extraction speed 3.2 XTrack quality 99.9 %Test CRC F75C18C2Copy CRC F75C18C2Accurately ripped (confidence 2) [83FB9DFA] (AR v2)Copy OK
Track 2
Filename D:\William Walton - Symphonies (Brabbins)\02 - Symphony No. 1 In B flat minor - II. Presto con malizia.wav
Peak level 100.0 %Extraction speed 3.7 XTrack quality 100.0 %Test CRC 02F12C6FCopy CRC 02F12C6FAccurately ripped (confidence 2) [E0CEF5F5] (AR v2)Copy OK
Track 3
Filename D:\William Walton - Symphonies (Brabbins)\03 - Symphony No. 1 In B flat minor - III. Andante con malinconia.wav
Peak level 95.7 %Extraction speed 4.0 XTrack quality 99.9 %Test CRC 10820059Copy CRC 10820059Accurately ripped (confidence 2) [A4EAA657] (AR v2)Copy OK
Track 4
Filename D:\William Walton - Symphonies (Brabbins)\04 - Symphony No. 1 In B flat minor - IV. Maestoso - Allegro, brioso e ardentemente - Vivacissimo - Maestoso.wav
Peak level 100.0 %Extraction speed 5.0 XTrack quality 100.0 %Test CRC B2E8D1A2Copy CRC B2E8D1A2Accurately ripped (confidence 2) [C2C4A00E] (AR v2)Copy OK
Track 5
Filename D:\William Walton - Symphonies (Brabbins)\05 - Siesta.wav
Peak level 48.3 %Extraction speed 4.8 XTrack quality 100.0 %Test CRC E56F2C47Copy CRC E56F2C47Accurately ripped (confidence 2) [FC52D05C] (AR v2)Copy OK
Track 6
Filename D:\William Walton - Symphonies (Brabbins)\06 - Symphony No. 2 - I. Allegro molto.wav
Peak level 100.0 %Extraction speed 5.4 XTrack quality 100.0 %Test CRC 3045B122Copy CRC 3045B122Accurately ripped (confidence 2) [415B6A6C] (AR v2)Copy OK
Track 7
Filename D:\William Walton - Symphonies (Brabbins)\07 - Symphony No. 2 - II. Lento assai.wav
Peak level 100.0 %Extraction speed 5.7 XTrack quality 100.0 %Test CRC 755E5EFCCopy CRC 755E5EFCAccurately ripped (confidence 2) [3D298491] (AR v2)Copy OK
Track 8
Filename D:\William Walton - Symphonies (Brabbins)\08 - Symphony No. 2 - III. Passacaglia. Theme and Variations - Fugato - Coda (Scherzando).wav
Peak level 100.0 %Extraction speed 6.0 XTrack quality 100.0 %Test CRC 39B5765DCopy CRC 39B5765DAccurately ripped (confidence 2) [CA4AC95B] (AR v2)Copy OK
All tracks accurately ripped
No errors occurred
End of status report
==== Log checksum E71ADF3E9103F1BDCB43D2B8DC88902C7B9F2E2A1B15CBC9D50B478582CD58FF ====

LOG (.CUE):

REM GENRE ClassicalREM DATE 2011REM DISCID 74124B08REM COMMENT "ExactAudioCopy v1.0b2"FILE "William Walton - Symphonies (Brabbins)\01 - Symphony No. 1 In B flat minor - I. Allegro assai.wav" WAVE TRACK 01 AUDIO INDEX 01 00:00:00FILE "William Walton - Symphonies (Brabbins)\02 - Symphony No. 1 In B flat minor - II. Presto con malizia.wav" WAVE TRACK 02 AUDIO INDEX 01 00:00:00FILE "William Walton - Symphonies (Brabbins)\03 - Symphony No. 1 In B flat minor - III. Andante con malinconia.wav" WAVE TRACK 03 AUDIO INDEX 01 00:00:00FILE "William Walton - Symphonies (Brabbins)\04 - Symphony No. 1 In B flat minor - IV. Maestoso - Allegro, brioso e ardentemente - Vivacissimo - Maestoso.wav" WAVE TRACK 04 AUDIO INDEX 01 00:00:00FILE "William Walton - Symphonies (Brabbins)\05 - Siesta.wav" WAVE TRACK 05 AUDIO INDEX 01 00:00:00FILE "William Walton - Symphonies (Brabbins)\06 - Symphony No. 2 - I. Allegro molto.wav" WAVE TRACK 06 AUDIO INDEX 01 00:00:00FILE "William Walton - Symphonies (Brabbins)\07 - Symphony No. 2 - II. Lento assai.wav" WAVE TRACK 07 AUDIO INDEX 01 00:00:00FILE "William Walton - Symphonies (Brabbins)\08 - Symphony No. 2 - III. Passacaglia. Theme and Variations - Fugato - Coda (Scherzando).wav" WAVE TRACK 08 AUDIO INDEX 01 00:00:00



Показать сообщения:    

Текущее время: 10-Дек 17:38

Часовой пояс: UTC + 3


Вы не можете начинать темы
Вы не можете отвечать на сообщения
Вы не можете редактировать свои сообщения
Вы не можете удалять свои сообщения
Вы не можете голосовать в опросах
Вы не можете прикреплять файлы к сообщениям
Вы не можете скачивать файлы