(Classical) George Enescu - Romanian Rhapsody No.2, Op.11; Symphony No.2, Op.17: Orchestral Works, Vol.2 (Cristian Mandeal, George Enescu Bucharest Philharmonic) - 2007, FLAC (image+.cue) lossless


 

[Цитировать]

George Enescu - Suite d'Orchestre No.1 in C major, Op.9; Intermede pour Instruments a Cordes Op.12; Symphony No.1 in E flat major, Op.1: Orchestral Works, Vol.1 (Cristian Mandeal, Bucharest Philharmonic)
Жанр: Classical
Год издания диска: 2007
Издатель (лейбл): Arte Nova Classics
Номер по каталогу: 723721 27845 8
Аудиокодек: FLAC
Тип рипа: image+.cue
Битрейт аудио: lossless
Продолжительность: 63:35
Источник: скачано из сети
Наличие сканов в содержимом раздачи: да
Треклист:
01. Romanian Rhapsody No.2 in D major, Op.11-2 [0:11:52.00]
02. Symphony No.2 in A major, Op.17 - I. Vivace, ma non troppo [0:19:02.62]
03. II. Andante giusto [0:13:35.23]
04. III. Un poco lento, marziale- Allegro vivace [0:19:03.05]
Исполнители:
George Enescu Bucharest Philharmonic
Christian Mandeal

LOG EAC

Exact Audio Copy V1.0 beta 3 from 29. August 2011
EAC extraction logfile from 24. June 2014, 1:03
George Enescu / Orchestral Works Vol. 2
Used drive : TSSTcorpCDDVDW SH-S223C Adapter: 2 ID: 1
Read mode : SecureUtilize accurate stream : YesDefeat audio cache : YesMake use of C2 pointers : No
Read offset correction : 697Overread into Lead-In and Lead-Out : NoFill up missing offset samples with silence : YesDelete leading and trailing silent blocks : NoNull samples used in CRC calculations : YesUsed interface : Native Win32 interface for Win NT & 2000
Used output format : User Defined EncoderSelected bitrate : 1024 kBit/sQuality : HighAdd ID3 tag : NoCommand line compressor : C:\Program Files (x86)\Exact Audio Copy\FLAC\FLAC.EXEAdditional command line options : -V -0 -T "COMMENT=Ripped by Tapaz9" -T "artist=%artist%" -T "title=%title%" -T "album=%albumtitle%" -T "date=%year%" -T "tracknumber=%tracknr%" -T "genre=%genre%" %source%
TOC of the extracted CD
Track | Start | Length | Start sector | End sector --------------------------------------------------------- 1 | 0:00.00 | 11:52.00 | 0 | 53399 2 | 11:52.00 | 19:02.62 | 53400 | 139111 3 | 30:54.62 | 13:35.23 | 139112 | 200259 4 | 44:30.10 | 19:03.05 | 200260 | 285989
Range status and errors
Selected range
Filename F:\Musique\Enescu, George\Enescu_OrchestralWorks_ArteNova_Vol2\George Enescu - Orchestral Works Vol. 2.wav
Peak level 83.1 % Extraction speed 14.6 X Range quality 100.0 % Copy CRC 296011FB Copy OK
No errors occurred
End of status report
==== Log checksum DB7D7CF85B27F88CB3DE047AB24AF6D523004A70155FC7E44188797DA6DE5C28 ====
Список раздач композитора



Показать сообщения:    

Текущее время: 11-Дек 09:13

Часовой пояс: UTC + 3


Вы не можете начинать темы
Вы не можете отвечать на сообщения
Вы не можете редактировать свои сообщения
Вы не можете удалять свои сообщения
Вы не можете голосовать в опросах
Вы не можете прикреплять файлы к сообщениям
Вы не можете скачивать файлы