(Classical) Alfredo Casella - Notte di maggio, Op. 20; Cello Concerto, Op. 58; Scarlattiana, Op. 44 (Francesco La Vecchia, Orchestra Simphonica di Roma; Olivia Andreini, Andrea Noferini, Sun Hee You) - 2010, FLAC (image+.cue) lossless


 

[Цитировать]

Alfredo Casella - Notte di maggio, Op. 20; Cello Concerto, Op. 58; Scarlattiana, Op. 44 (Francesco La Vecchia, Orchestra Simphonica di Roma; Olivia Andreini, Andrea Noferini, Sun Hee You)
Жанр: Classical
Год издания диска: 2010
Издатель (лейбл): Naxos
Номер по каталогу: 8.572416
Аудиокодек: FLAC
Тип рипа: image+.cue
Битрейт аудио: lossless
Продолжительность: 66:18
Источник: скачано из сети
Наличие сканов в содержимом раздачи: да
Треклист:
01. Notte di maggio, Op. 20 [0:15:10.26]
02. Cello Concerto, Op. 58 - I. Allegro molto vivace [0:09:13.28]
03. II. Largo - Grave [0:07:41.42]
04. III. Presto vivacissimo [0:04:33.40]
05. Scarlattiana, Op. 44 - I. Sinfonia: Lento grave, allegro molto vivace [0:05:22.24]
06. II. Minuetto: Allegretto ben moderato e grazioso [0:08:24.45]
07. III. Capriccio: Allegro vivacissimo e impetuoso [0:03:56.36]
08. IV. Pastorale: Andantino dolcemente mosso [0:05:36.09]
09. V. Finale: Lento molto e grave [0:06:17.43]
Исполнители:
Olivia Andreini - Mezzo-soprano
Andrea Noferini - Cello
Sun Hee You - Piano
Orchestra Sinfonica di Roma,
Francesco La Vecchia

LOG EAC

Exact Audio Copy V1.0 beta 3 from 29. August 2011
EAC extraction logfile from 29. November 2013, 0:17
Alfredo Casella / Notte di maggio, Cello Concerto, Scarlattiana (Andreini, Noferini, Sun-Hee You, Rome Symphony, La Vecchia)
Used drive : TSSTcorpCDDVDW SH-S223C Adapter: 2 ID: 1
Read mode : SecureUtilize accurate stream : YesDefeat audio cache : YesMake use of C2 pointers : No
Read offset correction : 697Overread into Lead-In and Lead-Out : NoFill up missing offset samples with silence : YesDelete leading and trailing silent blocks : NoNull samples used in CRC calculations : YesUsed interface : Native Win32 interface for Win NT & 2000
Used output format : User Defined EncoderSelected bitrate : 896 kBit/sQuality : HighAdd ID3 tag : NoCommand line compressor : C:\Program Files (x86)\Exact Audio Copy\FLAC\FLAC.EXEAdditional command line options : -V -0 -T "COMMENT=Ripped by Tapaz9" -T "artist=%artist%" -T "title=%title%" -T "album=%albumtitle%" -T "date=%year%" -T "tracknumber=%tracknr%" -T "genre=%genre%" %source%
TOC of the extracted CD
Track | Start | Length | Start sector | End sector --------------------------------------------------------- 1 | 0:00.00 | 15:10.26 | 0 | 68275 2 | 15:10.26 | 9:13.28 | 68276 | 109778 3 | 24:23.54 | 7:41.42 | 109779 | 144395 4 | 32:05.21 | 4:33.40 | 144396 | 164910 5 | 36:38.61 | 5:22.24 | 164911 | 189084 6 | 42:01.10 | 8:24.45 | 189085 | 226929 7 | 50:25.55 | 3:56.36 | 226930 | 244665 8 | 54:22.16 | 5:36.09 | 244666 | 269874 9 | 59:58.25 | 6:17.43 | 269875 | 298192
Range status and errors
Selected range
Filename F:\Musique\Casella, Alfredo\Casella_CelloConcerto\Alfredo Casella - Notte di maggio, Cello Concerto, Scarlattiana.wav
Peak level 99.5 % Extraction speed 14.1 X Range quality 100.0 % Copy CRC E8A2B5E7 Copy OK
No errors occurred
End of status report
==== Log checksum 3C6793056D4327F70D6075A45204CB3CCCE8A99BFD08AFF8DF730466F4B04410 ====



Показать сообщения:    

Текущее время: 05-Дек 01:26

Часовой пояс: UTC + 3


Вы не можете начинать темы
Вы не можете отвечать на сообщения
Вы не можете редактировать свои сообщения
Вы не можете удалять свои сообщения
Вы не можете голосовать в опросах
Вы не можете прикреплять файлы к сообщениям
Вы не можете скачивать файлы