(Classical) Alfredo Casella - Suite in C major, Op. 13; Pagine di guerra, Op. 25bis; Concerto for Orchestra, Op. 61; (Francesco La Vecchia, Orchestra Sinfonica di Roma) - 2012, FLAC (image+.cue) lossless


 

[Цитировать]

Alfredo Casella - Suite in C major, Op. 13; Pagine di guerra, Op. 25bis; Concerto for Orchestra, Op. 61; (Francesco La Vecchia, Orchestra Sinfonica di Roma)
Жанр: Classical
Год издания диска: 2012
Издатель (лейбл): Naxos
Номер по каталогу: 8.573004
Аудиокодек: FLAC
Тип рипа: image+.cue
Битрейт аудио: lossless
Продолжительность: 69:58
Источник: скачано из сети
Наличие сканов в содержимом раздачи: да
Треклист:
01. Suite in C major, Op. 13 - I. Ouverture [0:08:02.66]
02. II. Sarabande [0:11:30.21]
03. III. Bourree [0:06:48.16]
04. Pagine di guerra, Op. 25bis - I. Nel Belgio: sfilata di artiglieria pesante tedesca [0:01:57.72]
05. II. In Francia: Davanti alle rovine della cattedrale di Reims [0:02:24.04]
06. III. In Russia: Carica di cavalleria cosacca [0:01:16.33]
07. IV. In Alsazia: Croci di legno [0:02:51.34]
08. V. Nell'Adriatico: Corazzate italiane in crociera [0:02:29.26]
09. Concerto for Orchestra, Op. 61 - I. Sinfonia [0:10:01.16]
10. II. Passacaglia [0:15:01.58]
11. III. Inno [0:07:32.17]
Исполнители:
Orchestra Sinfonica di Roma,
Francesco La Vecchia

LOG EAC

Exact Audio Copy V1.0 beta 3 from 29. August 2011
EAC extraction logfile from 12. November 2013, 1:00
Alfredo Casella / Concerto for Orchestra, Pagine di guerra, Suite (Rome Symphony, La Vecchia)
Used drive : TSSTcorpCDDVDW SH-S223C Adapter: 2 ID: 1
Read mode : SecureUtilize accurate stream : YesDefeat audio cache : YesMake use of C2 pointers : No
Read offset correction : 697Overread into Lead-In and Lead-Out : NoFill up missing offset samples with silence : YesDelete leading and trailing silent blocks : NoNull samples used in CRC calculations : YesUsed interface : Native Win32 interface for Win NT & 2000
Used output format : User Defined EncoderSelected bitrate : 896 kBit/sQuality : HighAdd ID3 tag : NoCommand line compressor : C:\Program Files (x86)\Exact Audio Copy\FLAC\FLAC.EXEAdditional command line options : -V -0 -T "COMMENT=Ripped by Tapaz9" -T "artist=%artist%" -T "title=%title%" -T "album=%albumtitle%" -T "date=%year%" -T "tracknumber=%tracknr%" -T "genre=%genre%" %source%
TOC of the extracted CD
Track | Start | Length | Start sector | End sector --------------------------------------------------------- 1 | 0:00.00 | 8:02.66 | 0 | 36215 2 | 8:02.66 | 11:30.21 | 36216 | 87986 3 | 19:33.12 | 6:48.16 | 87987 | 118602 4 | 26:21.28 | 1:57.72 | 118603 | 127449 5 | 28:19.25 | 2:24.04 | 127450 | 138253 6 | 30:43.29 | 1:16.33 | 138254 | 143986 7 | 31:59.62 | 2:51.34 | 143987 | 156845 8 | 34:51.21 | 2:29.26 | 156846 | 168046 9 | 37:20.47 | 10:01.16 | 168047 | 213137 10 | 47:21.63 | 15:01.58 | 213138 | 280770 11 | 62:23.46 | 7:32.17 | 280771 | 314687
Range status and errors
Selected range
Filename F:\Musique\Casella, Alfredo\Casella_ConcertoForOrchestra\Alfredo Casella - Concerto for Orchestra, Pagine di guerra, Suite (Rome Symphony, La Vecchia).wav
Peak level 98.5 % Extraction speed 14.3 X Range quality 99.9 % Copy CRC 1D3E5BA2 Copy OK
No errors occurred
End of status report
==== Log checksum 5CA772B277919A9FAFF3765033F700A0159A993E17C7EEFC63D128EE111CEB4C ====



Показать сообщения:    

Текущее время: 09-Дек 22:22

Часовой пояс: UTC + 3


Вы не можете начинать темы
Вы не можете отвечать на сообщения
Вы не можете редактировать свои сообщения
Вы не можете удалять свои сообщения
Вы не можете голосовать в опросах
Вы не можете прикреплять файлы к сообщениям
Вы не можете скачивать файлы